Today is a free download without charge Download

Женщина в черном / The Woman in Black (Джеймс Уоткинс) [2012 г., ужасы, триллер, драма, HDRip] Лицензия

Reply to topic
 
Author
Message

BoxeR ®

Gender:

Longevity: 9 years 2 months

Posts: 423

Торрент-статистика

Post 27-Jun-2012 18:27

[Quote]

Женщина в черном / The Woman in Black-«Только не смотри на нее»- Страна: Швеция, Канада, Великобритания
Жанр: ужасы, триллер, драма
Год выпуска: 2012
Продолжительность: 01:34:25-Перевод: Профессиональный (дублированный) [лицензия]
Cубтитры: нет
Режиссер: Джеймс Уоткинс / James Watkins-В ролях: Дэниэл Рэдклифф, Кьяран Хайндс, Джанет МакТир, Дэвид Бурк, Шон Дули, Эмма Шори, Хэрмон Молли, Софи Стаки, Миша Хэндли, Джессика Рэйне-Описание: На дворе — конец девятнадцатого века, но, хотя люди пользуются автомобилями, железными дорогами, и телеграфом, человек по-прежнему бессилен перед проявлениями сверхъестественного. Молодой лондонский юрист Артур Киппс вынужден оставить своего трехлетнего сына и отправиться в командировку в уединенную северную деревушку, чтобы составить реестр документов, оставшихся от скончавшегося хозяина поместья Ил Марш. Добравшись до места, и пообщавшись с негостеприимными местными жителями, он начинает понимать, что над деревушкой нависла тень мрачной тайны. Когда же рядом со старым кладбищем ему на глаза попадается загадочная женщина, одетая в черное, это малозначительное происшествие знаменует начало череды леденящих кровь смертей в семьях обитателей деревни.-Релиз группы: - -Качество видео: HDRip | Сэмпл
Формат видео: AVI
Видео: XviD, 720х304, 2.35:1, 23.976 fps, 1598 Kb/s
Аудио: AC3, 48000 KHz, 448 Kb/s (6 ch)

MediaInfo

General
Complete name : E:\Новое\Jenshina.v.chornom.2012.D.HDRip.ELEKTRI4KA.[uniongang].avi
Format : AVI
Format/Info : Audio Video Interleave
File size : 1.37 GiB
Duration : 1h 35mn
Overall bit rate : 2 056 Kbps
Writing application : VirtualDubMod 1.5.10.2 (build 2542/release)
Writing library : VirtualDubMod build 2542/release
Video
ID : 0
Format : MPEG-4 Visual
Format profile : Advanced [email protected]
Format settings, BVOP : Yes
Format settings, QPel : No
Format settings, GMC : No warppoints
Format settings, Matrix : Default (MPEG)
Codec ID : XVID
Codec ID/Hint : XviD
Duration : 1h 35mn
Bit rate : 1 598 Kbps
Width : 720 pixels
Height : 304 pixels
Display aspect ratio : 2.35:1
Frame rate : 23.976 fps
Resolution : 8 bits
Colorimetry : 4:2:0
Scan type : Progressive
Bits/(Pixel*Frame) : 0.305
Stream size : 1.06 GiB (78%)
Writing library : XviD 64
Audio
ID : 1
Format : AC-3
Format/Info : Audio Coding 3
Codec ID : 2000
Duration : 1h 35mn
Bit rate mode : Constant
Bit rate : 448 Kbps
Channel(s) : 6 channels
Channel positions : Front: L C R, Surround: L R, LFE
Sampling rate : 48.0 KHz
Video delay : 28ms
Stream size : 305 MiB (22%)
Alignment : Split accross interleaves
Interleave, duration : 42 ms (1.00 video frame)
Interleave, preload duration : 500 ms

Скриншоты

     


Last edited by BoxeR on 2012-06-27 19:34; edited 1 time in total
Other forum [Profile] [PM]

радист

Gender:

Longevity: 10 years

Posts: 164

Торрент-статистика

Post 27-Jun-2012 18:55 (after 27 minutes)

[Quote]

Перевод: Профессиональный (дублированный) [лицензия]-или это чистый звук?

_________________
Дураков на свете не много, но расставлены они так грамотно, что встречаются на каждом шагу.
Other forum [Profile] [PM]

радист

Gender:

Longevity: 10 years

Posts: 164

Торрент-статистика

Post 27-Jun-2012 20:40 (after 1 hour 45 minutes)

[Quote]

Отлично!
Тогда возьмём.

_________________
Дураков на свете не много, но расставлены они так грамотно, что встречаются на каждом шагу.
Other forum [Profile] [PM]

Thinker

Gender:

Longevity: 9 years 2 months

Posts: 24

Торрент-статистика

Post 28-Jun-2012 20:00 (after 23 hours)

[Quote]

фильм великолепен!

_________________



Любая проблема - это замаскированная возможность.
Other forum [Profile] [PM]
Similar theme
Forum Topic Author Torrent Replies Last Post
./templates/default/images/folder_dl.gif Отечественные cериалы Любимые женщины Казановы / Серии: 1-4 из 4 (Сергей Быстрицкий) [2014, Мелодрама, HDTVRip-AVC] Omen
1 | 0

0 | 1024

4

2014-09-21 23:00
Omen Latest
Display posts from previous:    
Reply to topic

The time now is: Today 04:57

All times are GMT + 3 Hours



You cannot post new topics in this forum
You cannot reply to topics in this forum
You cannot edit your posts in this forum
You cannot delete your posts in this forum
You cannot vote in polls in this forum
You cannot attach files in this forum
You cannot download files in this forum