Today is a free download without charge Download

Дикая река / The River Wild (Кёртис Хэнсон) [1994 г., боевик, триллер, криминал, приключения, BDRip 720р]

Reply to topic
 
Author
Message

Delia ®

Gender:

Longevity: 9 years 7 months

Posts: 1821

Торрент-статистика

Post 19-Feb-2011 01:21

[Quote]

Дикая рекаThe River Wild Год выпуска: 1994
Страна: США
Жанр: боевик, триллер, криминал, приключения
Продолжительность: 108 мин.
Перевод: Профессиональный (многоголосый, закадровый)
Режиссер: Кёртис Хэнсон
Продюссер: Дэвид Фостер, Рэймонд Хартвик, Илона Херцберг
Сценарий: Денис О’Нил
Бюджет: $45 000 000
Премьера в мире: 30 сентября 1994
В ролях: Мэрил Стрип, Кевин Бейкон, Дэвид Стрэтэйрн, Джон Си Райли, Джозеф Маццелло, Стефани Сойер, Бенджамин Брэтт, Виктор Гэллоуэй, Элизабет Хоффман, Уильям Лаккинг
Описание: Нельзя сказать, что Гейл счастлива в браке: они с мужем на грани развода. Но однажды она принимает судьбоносное для семьи решение: отправиться в путешествие по бурной реке, знакомой ей с молодых лет. Семейные дрязги отходят на второй план, когда Гейл замечает в воде тонущих. Спасенный Уэйд, на первый взгляд, казался человеком порядочным. Но когда, он достал оружие, стало ясно — это нападение.
Качество: BDRip(Blu-Ray Remux (1080p)
Формат: MKV
Видео кодек: H.26x
Аудио кодек: AC3
Видео: 4799 Кбит/сек, 1280*544 (2,35:1), в 23,976 кадр/сек, AVC ([email protected])~ 0.287bit/pixel
Аудио: Russian, 448 Кбит/сек, 48,0 КГц, 16 бит, 2 канала(ов), AC-3
Аудио:English, 320 Кбит/сек, 48,0 КГц, 16 бит, 6 канала(ов), AC-3
Субтитры:Russian, UTF-8 :English, UTF-8
6.20 (14 829)

MediaInfo:

Полное имя : E:\торрент\The River Wild ( 1994)BDRip 720p .mkv
Формат : Matroska
Размер файла : 4,34 Гбайт
Продолжительность : 1 ч. 51 м.
Общий поток : 5567 Кбит/сек
Дата кодирования : UTC 2011-02-18 21:11:39
Программа кодирования : mkvmerge v4.5.0 ('Speed of Light') built on Feb 1 2011 02:10:32
Библиотека кодирования : libebml v1.2.0 + libmatroska v1.1.0
Видео
Идентификатор : 1
Формат : AVC
Формат/Информация : Advanced Video Codec
Профиль формата : [email protected]
Параметр CABAC формата : Да
Параметр ReFrames формата : 12 кадры
Идентификатор кодека : V_MPEG4/ISO/AVC
Продолжительность : 1 ч. 51 м.
Битрейт : 4799 Кбит/сек
Ширина : 1280 пикс.
Высота : 544 пикс.
Соотношение сторон : 2,35:1
Частота кадров : 23,976 кадр/сек
Цветовое пространство : YUV
Подвыборка цветности : 4:2:0
Битовая глубина : 8 бит
Тип развёртки : Прогрессивная
Бит/(Пиксели*Кадры) : 0.287
Размер потока : 3,65 Гбайт (84%)
Библиотека кодирования : x264 core 114 r1900 60ef1f8
Настройки программы : cabac=1 / ref=12 / deblock=1:-3:-3 / analyse=0x3:0x133 / me=umh / subme=7 / psy=1 / psy_rd=1.00:0.00 / mixed_ref=1 / me_range=32 / chroma_me=1 / trellis=2 / 8x8dct=1 / cqm=0 / deadzone=21,11 / fast_pskip=1 / chroma_qp_offset=-2 / threads=6 / sliced_threads=0 / nr=0 / decimate=1 / interlaced=0 / constrained_intra=0 / bframes=4 / b_pyramid=2 / b_adapt=1 / b_bias=0 / direct=1 / weightb=1 / open_gop=0 / weightp=2 / keyint=250 / keyint_min=23 / scenecut=40 / intra_refresh=0 / rc_lookahead=40 / rc=2pass / mbtree=1 / bitrate=4799 / ratetol=1.0 / qcomp=0.80 / qpmin=5 / qpmax=51 / qpstep=4 / cplxblur=20.0 / qblur=0.5 / ip_ratio=1.40 / aq=1:1.00
Язык : English
Аудио #1
Идентификатор : 2
Формат : AC-3
Формат/Информация : Audio Coding 3
Расширение режима : CM (complete main)
Идентификатор кодека : A_AC3
Продолжительность : 1 ч. 51 м.
Вид битрейта : Постоянный
Битрейт : 448 Кбит/сек
Канал(ы) : 2 канала(ов)
Расположение каналов : Front: L R
Частота : 48,0 КГц
Битовая глубина : 16 бит
Метод сжатия : С потерями
Размер потока : 357 Мбайт (8%)
Язык : Russian
Аудио #2
Идентификатор : 3
Формат : AC-3
Формат/Информация : Audio Coding 3
Расширение режима : CM (complete main)
Идентификатор кодека : A_AC3
Продолжительность : 1 ч. 51 м.
Вид битрейта : Постоянный
Битрейт : 320 Кбит/сек
Канал(ы) : 6 канала(ов)
Расположение каналов : Front: L C R, Side: L R, LFE
Частота : 48,0 КГц
Битовая глубина : 16 бит
Метод сжатия : С потерями
Размер потока : 255 Мбайт (6%)
Язык : English
Текст #1
Идентификатор : 4
Формат : UTF-8
Идентификатор кодека : S_TEXT/UTF8
Идентификатор кодека/Информация : UTF-8 Plain Text
Язык : Russian
Текст #2
Идентификатор : 5
Формат : UTF-8
Идентификатор кодека : S_TEXT/UTF8
Идентификатор кодека/Информация : UTF-8 Plain Text
Язык : English

Скриншоты

       [thumbnails]http://i15.fastpic.ru/big/2011/0218/ed/8ccd077e1e22...55619f7162ed.jpg [/thumbnails]

_________________
Человек – это канат, натянутый между животным и сверхчеловеком, – канат над пропастью.
В человеке ценно то, что он мост, а не цель. Фридрих Ницше


Last edited by Delia on 2011-08-25 21:56; edited 1 time in total
Other forum [Profile] [PM]
Similar theme
Forum Topic Author Torrent Replies Last Post
./templates/default/images/folder_dl.gif Зарубежное кино Дикая / Wild (Жан-Марк Валле / Jean-Marc Valle) [2014, США, Драма, биография, Blu-ray disc] Dub + Sub Rus, Eng + Original Eng Omen
1 | 0

1 | 1654

20

2015-05-08 07:34
Dracula Latest
./templates/default/images/folder_dl.gif Новинки (HD|DVD|BD|WEB|TV|SAT|PDTV|-Rip) Дикая Лига (Андрей Богатырев, Арт Камачо) [2019, Приключения, боевик, WEB-DLRip] [iTunes] Орлов Владимир
1 | 0

0 | 249

0

2019-11-18 15:46
Орлов Владимир Latest
Display posts from previous:    
Reply to topic

The time now is: Today 11:25

All times are GMT + 3 Hours



You cannot post new topics in this forum
You cannot reply to topics in this forum
You cannot edit your posts in this forum
You cannot delete your posts in this forum
You cannot vote in polls in this forum
You cannot attach files in this forum
You cannot download files in this forum