Today is a free download without charge Download

Скольжение (Антон Розенберг) [2013, Россия, триллер, криминал, WEB-DL 720p] + Original Rus

Reply to topic
 
Author
Message

Omen ®

Longevity: 8 years 10 months

Posts: 181086

Торрент-статистика

Post 27-Nov-2015 12:24

[Quote]

Скольжение
Страна: Россия
Студия: Blackbriar production, Multiland
Жанр: триллер, криминал
Год выпуска: 2013
Продолжительность: 01:49:24
Перевод: Не требуется
Cубтитры: нет
Оригинальная аудиодорожка: русский
Режиссер: Антон Розенберг
В ролях: Владислав Абашин, Алексей Игнатов, Михаил Солодко, Владимир Лукьянчиков, Наталья Швец, Ольга Смирнова, Александр Борисов, Николай Козак, Мария Слидовкер, Алексей Шкатов
Описание: Главный герой с необычным именем-прозвищем Пепл — оперативный сотрудник, однако и он, и вся группа, к которой он принадлежит, типичные, погрязшие в криминальной деятельности, «оборотни в погонах». В отлаженной преступной схеме этой сработавшейся команды начинают возникать сбои, и становится очевидным, что в их рядах есть осведомитель.
Обозначенная сюжетная канва не является единственным содержанием фильма — в оболочке криминальной драмы авторы рассказывают глубокую человеческую историю главного героя. Одновременно с описанными событиями он попадает в ситуацию, поставившую его на край реальной гибели, и это впервые заставляет Пепла начать осмысление собственной жизни и того, чем он занимается. Его рефлексия осложняется запутанными, эмоционально тяжелыми отношениями с женой. В результате он больше не может быть прежним, команда чувствует это, и подозрения падают именно на Пепла. Коллеги решают, что он и есть информатор ФСБ. Бывшие соратники превращаются во врагов, слаженный механизм группы работает теперь против Пепла. Он становится объектом безжалостного преследования.
Ситуация раскручивается с неконтролируемой скоростью, она необратимо приобретает все более жесткую форму и безысходный характер. Скольжение Пепла становится все быстрее, теперь на кону уже гораздо большее, чем собственная жизнь, и ему придется решать, что для него действительно важно и за что стоит бороться до самого конца.


Sample
Тип релиза: WEB-DL 720p
Контейнер: MKV
Видео: MPEG4 AVC Video, H264, 16:9, 1280x532, 24.000 fps, 3917 kbps
Аудио: Russian (AC3, 6 ch, 384 kbps, 16 bits, 48.0 KHz) - оригинал

MediaInfo

General
Unique ID : 196041258594420274466333542929841574803 (0x937C2C4B72871057A9507272F9D4D393)
Complete name : E:\Скольжение 2013 WEB-DL 720p.mkv
Format : Matroska
Format version : Version 4 / Version 2
File size : 3.35 GiB
Duration : 1h 49mn
Overall bit rate : 4 388 Kbps
Encoded date : UTC 2015-07-02 18:08:55
Writing application : mkvmerge v6.9.1 ('Blue Panther') 64bit built on Apr 18 2014 18:23:38
Writing library : libebml v1.3.0 + libmatroska v1.4.1
Video
ID : 1
Format : AVC
Format/Info : Advanced Video Codec
Format profile : [email protected]
Format settings, CABAC : No
Format settings, ReFrames : 2 frames
Codec ID : V_MPEG4/ISO/AVC
Duration : 1h 49mn
Bit rate : 3 917 Kbps
Width : 1 280 pixels
Height : 532 pixels
Display aspect ratio : 2.40:1
Frame rate mode : Constant
Frame rate : 24.000 fps
Color space : YUV
Chroma subsampling : 4:2:0
Bit depth : 8 bits
Scan type : Progressive
Bits/(Pixel*Frame) : 0.240
Stream size : 2.99 GiB (89%)
Language : English
Default : Yes
Forced : No
Color primaries : BT.709
Transfer characteristics : BT.709
Matrix coefficients : BT.709
Audio
ID : 2
Format : AC-3
Format/Info : Audio Coding 3
Mode extension : CM (complete main)
Format settings, Endianness : Big
Codec ID : A_AC3
Duration : 1h 49mn
Bit rate mode : Constant
Bit rate : 384 Kbps
Channel count : 6 channels
Channel positions : Front: L C R, Side: L R, LFE
Sampling rate : 48.0 KHz
Bit depth : 16 bits
Compression mode : Lossy
Stream size : 301 MiB (9%)
Language : Russian
Default : Yes
Forced : No
Menu
00:00:00.000 : en:Глава 1
00:02:07.000 : en:Глава 2
00:08:53.000 : en:Глава 3
00:13:38.000 : en:Глава 4
00:17:44.000 : en:Глава 5
00:23:51.000 : en:Глава 6
00:30:15.000 : en:Глава 7
00:34:50.000 : en:Глава 8
00:38:57.000 : en:Глава 9
00:43:24.000 : en:Глава 10
00:47:37.000 : en:Глава 11
00:52:35.000 : en:Глава 12
01:00:27.000 : en:Глава 13
01:06:36.000 : en:Глава 14
01:13:27.000 : en:Глава 15
01:19:32.000 : en:Глава 16
01:24:04.000 : en:Глава 17
01:30:48.000 : en:Глава 18
01:34:06.000 : en:Глава 19
01:38:57.000 : en:Глава 20
01:43:35.000 : en:Глава 21

Скриншоты

Other forum [Profile] [PM]
Display posts from previous:    
Reply to topic

The time now is: Today 14:53

All times are GMT + 3 Hours



You cannot post new topics in this forum
You cannot reply to topics in this forum
You cannot edit your posts in this forum
You cannot delete your posts in this forum
You cannot vote in polls in this forum
You cannot attach files in this forum
You cannot download files in this forum