Today is a free download without charge Download

Родина (Петр Буслов) [2015, Россия, драма, триллер, WEB-DL 720p] + Original Rus

Reply to topic
 
Author
Message

Omen ®

Longevity: 8 years 10 months

Posts: 181086

Торрент-статистика

Post 26-Nov-2015 18:28

[Quote]

Родина
Страна: Россия
Студия: Актябрь фильм, Кинокомпания CTB
Жанр: драма, триллер
Год выпуска: 2015
Продолжительность: 02:04:38
Перевод: Не требуется
Cубтитры: русские неотключаемые только на иностранную речь
Оригинальная аудиодорожка: русский
Режиссер: Петр Буслов
В ролях: Андрей Смоляков, Пётр Фёдоров, Любовь Аксенова, Павел Личникофф, Екатерина Волкова, Сергей Бадюк, Андрей Мерзликин, Кирилл Кяро, Александр Робак, Максим Лагашкин
Описание: Здесь ночи слепят огнями рейвов, дни баюкают шумом волн, песок похож на золото, деньги — просто бумага, живи и не тужи, а если совсем повезет, встретишь Бога. Здесь — это Индия, Гоа, куда люди со всего мира отправляются, чтобы найти или потерять себя.
Ева, дочь богатого русского, попадает сюда не по своей воле — отец психанул и высадил ночью из частного самолёта на первой подвернувшейся полосе. Когда отец одумался, девушку уже увлёк лабиринт человеческих судеб. Здесь новосибирский парень Макар жадно ищет просветления — до конца отпуска остался один день. Здесь Алексей и Кристина прощаются с семейным счастьем, а мелкие бесы на байках Димон и Леня испытывают мир на прочность. Здесь Гуру (только не надо его так называть!) Космос дарит препараты, сокращающие путь в другую реальность до одного щелчка. Здесь разные судьбы. Разные люди. Но у всех одна Родина. Не любить которую легко, когда она рядом.


Sample
Тип релиза: WEB-DL 720p
Контейнер: MKV
Видео: MPEG4 AVC Video, H264, 16:9, 1280x536, 24 fps, 3905 kbps
Аудио: Russian (AC3, 6 ch, 384 kbps, 16 bits, 48.0 KHz) - оригинал
Формат субтитров: hardsub (неотключаемые)

MediaInfo

General
Unique ID : 171098863177261246243154866802700913121 (0x80B8714169ADA0EDB8F655C8792909E1)
Complete name : L:\Родина 2015 WEB-DL 720p.mkv
Format : Matroska
Format version : Version 4 / Version 2
File size : 3.81 GiB
Duration : 2h 4mn
Overall bit rate : 4 376 Kbps
Encoded date : UTC 2015-11-08 19:11:46
Writing application : mkvmerge v8.3.0 ('Over the Horizon') 64bit
Writing library : libebml v1.3.1 + libmatroska v1.4.2
DURATION : 02:04:38.496000000
NUMBER_OF_FRAMES : 233703
NUMBER_OF_BYTES : 358967808
_STATISTICS_WRITING_APP : mkvmerge v8.3.0 ('Over the Horizon') 64bit
_STATISTICS_WRITING_DATE_UTC : 2015-11-08 19:11:46
_STATISTICS_TAGS : BPS DURATION NUMBER_OF_FRAMES NUMBER_OF_BYTES
Video
ID : 1
Format : AVC
Format/Info : Advanced Video Codec
Format profile : [email protected]
Format settings, CABAC : No
Format settings, ReFrames : 2 frames
Codec ID : V_MPEG4/ISO/AVC
Duration : 2h 4mn
Bit rate : 3 905 Kbps
Width : 1 280 pixels
Height : 536 pixels
Display aspect ratio : 2.40:1
Frame rate mode : Constant
Frame rate : 24.000 fps
Color space : YUV
Chroma subsampling : 4:2:0
Bit depth : 8 bits
Scan type : Progressive
Bits/(Pixel*Frame) : 0.237
Stream size : 3.40 GiB (89%)
Language : English
Default : Yes
Forced : No
Color primaries : BT.709
Transfer characteristics : BT.709
Matrix coefficients : BT.709
Audio
ID : 2
Format : AC-3
Format/Info : Audio Coding 3
Mode extension : CM (complete main)
Format settings, Endianness : Big
Codec ID : A_AC3
Duration : 2h 4mn
Bit rate mode : Constant
Bit rate : 384 Kbps
Channel count : 6 channels
Channel positions : Front: L C R, Side: L R, LFE
Sampling rate : 48.0 KHz
Bit depth : 16 bits
Compression mode : Lossy
Stream size : 342 MiB (9%)
Language : Russian
Default : Yes
Forced : No
Menu
00:00:00.000 : en:Глава 1
00:09:25.000 : en:Глава 2
00:18:07.000 : en:Глава 3
00:25:17.000 : en:Глава 4
00:35:15.000 : en:Глава 5
00:43:15.000 : en:Глава 6
00:48:46.000 : en:Глава 7
00:59:47.000 : en:Глава 8
01:10:11.000 : en:Глава 9
01:19:52.000 : en:Глава 10
01:29:40.000 : en:Глава 11
01:38:34.000 : en:Глава 12
01:46:57.000 : en:Глава 13
01:57:09.000 : en:Глава 14

Скриншоты

Other forum [Profile] [PM]
Display posts from previous:    
Reply to topic

The time now is: Today 22:50

All times are GMT + 3 Hours



You cannot post new topics in this forum
You cannot reply to topics in this forum
You cannot edit your posts in this forum
You cannot delete your posts in this forum
You cannot vote in polls in this forum
You cannot attach files in this forum
You cannot download files in this forum