Today is a free download without charge Download

Самое главное (Александр Ефремов) [2015, Россия, мелодрама, HDTV 1080i] + Original Rus

Reply to topic
 
Author
Message

Omen ®

Longevity: 8 years 10 months

Posts: 181086

Торрент-статистика

Post 26-Nov-2015 18:02

[Quote]

Самое главное
Страна: Россия
Студия: ООО "Тесей Продакшн", "МегаФильм"
Жанр: мелодрама
Год выпуска: 2015
Продолжительность: 01:33:30
Перевод: Не требуется
Cубтитры: нет
Оригинальная аудиодорожка: русский
Режиссер: Александр Ефремов
В ролях: Олеся Грибок, Борис Хвошнянский, Алёна Ивченко, Павел Яскевич, Иван Стрельцов, Юлианна Михневич, Тамара Миронова, Полина Стефанович, Алексей Юцкевич
Описание: Главная героиня Даша живет в небольшом городе вместе с бабушкой. Родных, кроме старенькой бабушки, у Даши нет — мама умерла, а отца девушка никогда не знала и считала погибшим. Но однажды бабушка решает открыть Дарье тайну ее рождения — ее отец жив и живет в Москве, не подозревая, что у него есть взрослая дочь. Даша решает поехать в столицу и найти своего папу. Им оказывается импозантный мужчина Владимир Бестужев — большой любитель женщин.
А самое главное — он, кажется, вовсе не рад тому, что Даша — его дочь.

Кинопоиск
Sample
Тип релиза: HDTV 1080i
Контейнер: TS
Видео: MPEG4 AVC Video, H264, 16:9, 1920x1080, 25 fps, 7867 kbps
Аудио: Russian (MP2, 2 ch, 192 kbps, 16 bits, 48.0 KHz) - оригинал

MediaInfo

General
ID : 1 (0x1)
Complete name : L:\Самое главное HDTV 1080i.ts
Format : MPEG-TS
File size : 5.54 GiB
Duration : 1h 33mn
Overall bit rate mode : Variable
Overall bit rate : 8 480 Kbps
Video
ID : 2911 (0xB5F)
Menu ID : 1009 (0x3F1)
Format : AVC
Format/Info : Advanced Video Codec
Format profile : [email protected]
Format settings, CABAC : Yes
Format settings, ReFrames : 4 frames
Codec ID : 27
Duration : 1h 33mn
Bit rate : 7 867 Kbps
Width : 1 920 pixels
Height : 1 080 pixels
Display aspect ratio : 16:9
Frame rate : 25.000 fps
Color space : YUV
Chroma subsampling : 4:2:0
Bit depth : 8 bits
Scan type : MBAFF
Bits/(Pixel*Frame) : 0.152
Stream size : 5.14 GiB (93%)
Audio
ID : 2912 (0xB60)
Menu ID : 1009 (0x3F1)
Format : MPEG Audio
Format version : Version 1
Format profile : Layer 2
Codec ID : 3
Duration : 1h 33mn
Bit rate mode : Constant
Bit rate : 192 Kbps
Channel count : 2 channels
Sampling rate : 48.0 KHz
Compression mode : Lossy
Stream size : 128 MiB (2%)
Language : Russian

Скриншоты

Other forum [Profile] [PM]
Similar theme
Forum Topic Author Torrent Replies Last Post
./templates/default/images/folder_dl.gif Медицина и Здоровье Ольга Родионова | Самое важное о болезнях спины (2013) [FB2, RTF] Omen
1 | 0

0 | 977

7

2015-08-29 13:33
Omen Latest
Display posts from previous:    
Reply to topic

The time now is: Today 13:54

All times are GMT + 3 Hours



You cannot post new topics in this forum
You cannot reply to topics in this forum
You cannot edit your posts in this forum
You cannot delete your posts in this forum
You cannot vote in polls in this forum
You cannot attach files in this forum
You cannot download files in this forum