Today is a free download without charge Download

Алла в поисках Аллы (Алексей Карелин) [2015, Россия, мелодрама, HDTV 1080i] + Original Rus

Reply to topic
 
Author
Message

Omen ®

Longevity: 8 years 10 months

Posts: 181086

Торрент-статистика

Post 25-Nov-2015 18:53

[Quote]

Алла в поисках Аллы
Страна: Россия
Студия: Паламеда Продакшн
Жанр: мелодрама
Год выпуска: 2015
Продолжительность: 01:29:47
Перевод: Не требуется
Cубтитры: нет
Оригинальная аудиодорожка: русский
Режиссер: Алексей Карелин
В ролях: Юлия Жигалина, Олег Алмазов, Максим Кречетов, Марина Денисова, Андрей Карако, Иван Павлов, Олег Ткачёв, Алла Волынец, Андрей Королевич, Александр Павлов (IV), Алексей Карелин
Описание: Успешная деловая женщина Алла Новикова впервые после окончания школы решила сходить на встречу одноклассников. Очнулась она на помойке на заднем дворе ресторана. Неприятности этим не ограничились, так как Алла упорно не могла вспомнить кто она такая, где живет, чем занимается.
Добрый самаритянин Андрей начинает помогать растерявшейся женщине и сразу обнаруживает, что у этой дамочки несносный характер. Память поэтапно возвращается к Алле. С помощью Андрея ей удается вспомнить всех своих мужей, найти свой офис, свою квартиру. Но, главное, ей удается новыми глазами взглянуть на свою прежнюю жизнь и счесть ее далекой от идеала…

Кинопоиск
Sample
Тип релиза: HDTV 1080i
Контейнер: TS
Видео: MPEG4 AVC Video, H264, 16:9, 1920x1080, 25 fps, 7866 kbps
Аудио: Russian (MP2, 2 ch, 192 kbps, 16 bits, 48.0 KHz) - оригинал

MediaInfo

General
ID : 1 (0x1)
Complete name : K:\Алла в поисках Аллы 2015 HDTV.1080i.ts
Format : MPEG-TS
File size : 5.32 GiB
Duration : 1h 29mn
Overall bit rate mode : Variable
Overall bit rate : 8 479 Kbps
Video
ID : 2911 (0xB5F)
Menu ID : 1009 (0x3F1)
Format : AVC
Format/Info : Advanced Video Codec
Format profile : [email protected]
Format settings, CABAC : Yes
Format settings, ReFrames : 4 frames
Codec ID : 27
Duration : 1h 29mn
Bit rate : 7 866 Kbps
Width : 1 920 pixels
Height : 1 080 pixels
Display aspect ratio : 16:9
Frame rate : 25.000 fps
Color space : YUV
Chroma subsampling : 4:2:0
Bit depth : 8 bits
Scan type : MBAFF
Bits/(Pixel*Frame) : 0.152
Stream size : 4.93 GiB (93%)
Audio
ID : 2912 (0xB60)
Menu ID : 1009 (0x3F1)
Format : MPEG Audio
Format version : Version 1
Format profile : Layer 2
Codec ID : 3
Duration : 1h 29mn
Bit rate mode : Constant
Bit rate : 192 Kbps
Channel count : 2 channels
Sampling rate : 48.0 KHz
Compression mode : Lossy
Stream size : 123 MiB (2%)
Language : Russian

Скриншоты

Other forum [Profile] [PM]
Display posts from previous:    
Reply to topic

The time now is: Today 14:34

All times are GMT + 3 Hours



You cannot post new topics in this forum
You cannot reply to topics in this forum
You cannot edit your posts in this forum
You cannot delete your posts in this forum
You cannot vote in polls in this forum
You cannot attach files in this forum
You cannot download files in this forum