Сегодня идет свободное скачивание без начисления Download

Мумия / The Mummy (Стивен Соммерс) [1999 г., фэнтези, боевик, приключения, HDRip](Трилогия)

Ответить на тему
 
Автор
Сообщение

Region_13 ®

Пол:

Стаж: 4 года 8 месяцев

Сообщений: 849

Откуда: Мальдивы

Торрент-статистика

Пост 24-Ноя-2015 20:04

[Цитировать]

Мумия / The Mummy
Год выпуска: (1999-2008)
Страна: США
Жанр: фэнтези, боевик, приключения
Продолжительность: 02:04:53
Перевод: Профессиональный (многоголосый закадровый)
Режиссер: Стивен Соммерс
Продюссер: Шон Дэниэл, Джеймс Джекс, Патриция Карр
Сценарий: Стивен Соммерс, Джон Л. Болдерстон, Ллойд Фонвиелл

Бюджет: $80 000 000
Премьера в мире: 16 апреля 1999
детям до 13 лет просмотр не желателен


В ролях: Брендан Фрейзер (Richard 'Rick' O'Connell), Рэйчел Вайс (Evelyn «Evy» Carnahan), Джон Ханна (Jonathan Carnahan), Арнольд Вослу (High Priest Imhotep), Кевин Дж. О’Коннор (Beni Gabor), Джонатан Хайд (Dr. Allen Chamberlain), Одед Фер (Ardeth Bay), Эрик Авари (Dr. Terrence Bey), Стивен Данэм (Mr. Henderson), Кори Джонсон (Mr. Daniels), Так Уоткинс (Mr. Burns), Омид Джалили (Warden Gad Hassan)

Описание:На бескрайних просторах египетской пустыни компания сорвиголов разных национальностей рыщет в поисках несметных сокровищ фараона, над которыми тяготеет жуткое древнее проклятие.
Рядом с кладом покоится мумия коварного жреца, жестоко казненного за ужасное убийство могущественного правителя Египта. Золотоискатели потревожили многовековой покой гробницы, и мумия встает из могилы, чтобы погрузить мир в царство кошмара...

Качество: HDRip
Формат: AVI
Видео кодек: XviD
Аудио кодек: AC3
Видео: XviD, 720x304 (2.35:1), 1346 kbps, 23,976 fps, 0,257 bpp
Аудио: AC3 / 5.1 / 48 kHz / 320 kbps / 16 bit

Мумия / The Mummy

 ИНФОРМАЦИЯ:
Год выпуска:1999
Страна: США
Жанр: фэнтези, боевик, приключения
Длительность: 02:04:53
Перевод: Профессиональный (многоголосый)
Режиссер: Стивен Соммерс
В Ролях:
Брендан Фрейзер (Richard 'Rick' O'Connell), Рэйчел Вайс (Evelyn «Evy» Carnahan), Джон Ханна (Jonathan Carnahan), Арнольд Вослу (High Priest Imhotep), Кевин Дж. О’Коннор (Beni Gabor), Джонатан Хайд (Dr. Allen Chamberlain), Одед Фер (Ardeth Bay), Эрик Авари (Dr. Terrence Bey), Стивен Данэм (Mr. Henderson), Кори Джонсон (Mr. Daniels), Так Уоткинс (Mr. Burns), Омид Джалили (Warden Gad Hassan)

Качество: HDRip
Формат: AVI
Видео: XviD, 720x304 (2.35:1), 1346 kbps, 23,976 fps, 0,257 bpp
Аудио: AC3 / 5.1 / 48 kHz / 320 kbps / 16 bit

Скриншоты

             

MEDIAINFO

General
Название : D:\Торенты\Раздачи\Mymia 1 , 2 , 3\Mymia.avi
Формат : AVI
Формат/Info : Audio Video Interleave
Размер файла : 1.46 GiB
Длительность : 2h 4mn
Общий Битрейт : 1 676 Kbps
Создано приложением : VirtualDubMod 1.5.10.2 (build 2540/release)
Writing library : VirtualDubMod build 2540/release
Video
ID : 0
Формат : MPEG-4 Visual
Формат profile : Advanced [email protected]
Формат настройки, BVOP : 1
Формат настройки, QPel : No
Формат настройки, GMC : No warppoints
Формат настройки, Matrix : Default (MPEG)
Кодек ID : XVID
Кодек ID/Hint : XviD
Длительность : 2h 4mn
Битрейт : 1 347 Kbps
Width : 720 пикселей
Высота : 304 пикселей
Соотношение кадра : 2.35:1
Частота кадров : 23.976 fps
Цветопередача : YUV
Chroma subsampling : 4:2:0
Разрядность : 8 bits
Тип сканирования : Progressive
Режим сжатия : Lossy
Bits/(Pixel*Frame) : 0.257
Размер потока : 1.18 GiB (80%)
Writing library : XviD 1.2.0.dev47 (UTC 2006-11-01)
Audio
ID : 1
Формат : AC-3
Формат/Info : Audio Coding 3
Расширение режима : CM (complete main)
Кодек ID : 2000
Длительность : 2h 4mn
Битрейт mode : Constant
Битрейт : 320 Kbps
Каналы(s) : 6 каналов
Каналы positions : Front: L C R, Side: L R, LFE
Частота : 48.0 KHz
Разрядность : 16 bits
Режим сжатия : Lossy
Размер потока : 286 MiB (19%)
Выравнивание : Split accross interleaves
Interleave, Длительность : 42 ms (1.00 video frame)
Interleave, preload Длительность : 500 ms

Мумия возвращается / The Mummy Returns

 Год выпуска:2001
Страна: США
Жанр: фэнтези, боевик, триллер, приключения
Длительность: 02:09:38
Перевод: Профессиональный (многоголосый)
Cубтитры: Русские, не отключаемые, вшитые. (надписи на древнегреческий)
Режиссер: Стивен Соммерс
В Ролях:Брендан Фрейзер (Rick O'Connell), Рэйчел Вайс (Evelyn / Nefertiri), Джон Ханна (Jonathan), Арнольд Вослу (Imhotep), Одед Фер (Ardeth Bay), Патрисия Веласкес (Anck-Su-Namun), Фредди Боат (Alex), Алан Армстронг (Mr. Hafez), Дуэйн Джонсон (The Scorpion King), Адевале Акинойе-Агбаже (Lock-Nah), Шон Паркес (Izzy), Брюс Байрон (Red)
ОПИСАНИЕ:
Прошло десять лет... Наш отважный герой, искатель приключений Рик О`Конелл, теперь богат, счастливо женат на прекрасной Эвелин и воспитывает своего восьмилетнего сына Алекса.
Но злой рок не дает очаровательной семье О`Конеллов насладиться спокойной жизнью. Зловещий жрец Имхотеп снова восстал из мертвых! Теперь у Рика, Эвелин и малютки Алекса есть всего семь дней, чтобы спасти мир...

mediainfo

General
Название : D:\Торенты\Раздачи\Mymia 1 , 2 , 3\Mymia vozvrajaetsya.avi
Формат : AVI
Формат/Info : Audio Video Interleave
Размер файла : 1.46 GiB
Длительность : 2h 9mn
Общий Битрейт : 1 607 Kbps
Создано приложением : VirtualDubMod 1.5.10.2 (build 2540/release)
Writing library : VirtualDubMod build 2540/release
Video
ID : 0
Формат : MPEG-4 Visual
Формат profile : Advanced [email protected]
Формат настройки, BVOP : 1
Формат настройки, QPel : No
Формат настройки, GMC : No warppoints
Формат настройки, Matrix : Default (MPEG)
Кодек ID : XVID
Кодек ID/Hint : XviD
Длительность : 2h 9mn
Битрейт : 1 087 Kbps
Width : 720 пикселей
Высота : 304 пикселей
Соотношение кадра : 2.35:1
Частота кадров : 23.976 fps
Цветопередача : YUV
Chroma subsampling : 4:2:0
Разрядность : 8 bits
Тип сканирования : Progressive
Режим сжатия : Lossy
Bits/(Pixel*Frame) : 0.207
Размер потока : 1 008 MiB (68%)
Writing library : XviD 1.2.1 (UTC 2008-12-04)
Audio
ID : 1
Формат : AC-3
Формат/Info : Audio Coding 3
Расширение режима : CM (complete main)
Кодек ID : 2000
Длительность : 2h 9mn
Битрейт mode : Constant
Битрейт : 448 Kbps
Каналы(s) : 6 каналов
Каналы positions : Front: L C R, Side: L R, LFE
Частота : 48.0 KHz
Разрядность : 16 bits
Режим сжатия : Lossy
Размер потока : 414 MiB (28%)
Выравнивание : Aligned on interleaves

Скриншоты

                 

Мумия: Гробница Императора Драконов / The Mummy: Tomb of the Dragon Emperor

 Год выпуска:2008
Страна: США, Китай, Германия, Канада
Жанр: фэнтези, боевик, триллер, приключения
Длительность: 01:51:40
Перевод: Дубляж
Cубтитры: Русские (вшитые, на китайскую речь)
Режиссер: Роб Коэн

В Ролях:
Брендан Фрейзер (Rick O'Connell), Джет Ли (Emperor), Мария Белло (Evelyn O'Connell), Джон Ханна (Jonathan Carnahan), Мишель Йео (Zi Yuan), Люк Форд (Alex O'Connell), Изабелла Люн (Lin), Энтони Вонг Чау Санг (General Yang), Расселл Вонг (Ming Guo), Лиам Каннингэм (Maguire), Дэвид Колдер (Roger Wilson), Джесси Менг (Choi)

ОПИСАНИЕ:
Заколдованный волшебницей, безжалостный китайский император-дракон должен провести вечность в забвении. Его 10 000 воинов превратились в терракотовых воинов. Однако когда искатель приключений Алекс О`Коннелл случайно пробуждает властителя от вечной спячки, он вынужден искать помощи у единственных людей, которые знают, как справиться с воскресшими мертвецами: у своих родителей.
Монарх возвращается к жизни, и наши герои понимают, что его сила за эту тысячу лет только увеличилась. Мумия готова поднять всю Азию в борьбе за мировое господство... если О`Коннеллы ее не остановят.

MediaINFO

General
Название : D:\Торенты\Раздачи\Mymia 1 , 2 , 3\Mummy_Tomb of the Dragon_Emperor.avi
Формат : AVI
Формат/Info : Audio Video Interleave
Размер файла : 1.45 GiB
Длительность : 1h 51mn
Общий Битрейт : 1 862 Kbps
Создано приложением : VirtualDubModRus 1.5.10.2 (build 2540/release)
Video
ID : 0
Формат : MPEG-4 Visual
Формат profile : Advanced [email protected]
Формат настройки, BVOP : 1
Формат настройки, QPel : No
Формат настройки, GMC : No warppoints
Формат настройки, Matrix : Default (H.263)
Кодек ID : XVID
Кодек ID/Hint : XviD
Длительность : 1h 51mn
Битрейт : 1 469 Kbps
Width : 720 пикселей
Высота : 304 пикселей
Соотношение кадра : 2.35:1
Частота кадров : 23.976 fps
Цветопередача : YUV
Chroma subsampling : 4:2:0
Разрядность : 8 bits
Тип сканирования : Progressive
Режим сжатия : Lossy
Bits/(Pixel*Frame) : 0.280
Размер потока : 1.15 GiB (79%)
Writing library : XviD 1.2.0.dev47 (UTC 2006-11-01)
Audio
ID : 1
Формат : AC-3
Формат/Info : Audio Coding 3
Расширение режима : CM (complete main)
Кодек ID : 2000
Длительность : 1h 51mn
Битрейт mode : Constant
Битрейт : 384 Kbps
Каналы(s) : 6 каналов
Каналы positions : Front: L C R, Side: L R, LFE
Частота : 48.0 KHz
Разрядность : 16 bits
Режим сжатия : Lossy
Размер потока : 307 MiB (21%)
Выравнивание : Split accross interleaves
Interleave, Длительность : 42 ms (1.00 video frame)
Interleave, preload Длительность : 500 ms

CКРИНШОТЫ

             

ПРИМЕЧАНИЕ

Сборник, не превышает по размеру один DVD диск (DVD5 или 4,37 гб)
СОВМЕСТИМО С БЫТОВЫМИ ПЛЕЕРАМИ

_________________
Вне форума [Профиль] [ЛС]
Показать сообщения:    
Ответить на тему

Текущее время: Сегодня 14:13

Часовой пояс: GMT + 3



Вы не можете начинать темы
Вы не можете отвечать на сообщения
Вы не можете редактировать свои сообщения
Вы не можете удалять свои сообщения
Вы не можете голосовать в опросах
Вы не можете прикреплять файлы к сообщениям
Вы не можете скачивать файлы