Today is a free download without charge Download

Крепость: щитом и мечом (Фёдор Дмитриев) [2015, Россия, Мультфильм, приключения, военный, WEB-DLRip]

Reply to topic
 
Author
Message

Omen ®

Longevity: 7 years 11 months

Posts: 181087

Торрент-статистика

Post 23-Nov-2015 12:46

[Quote]

Крепость: щитом и мечом- Год выхода : 2015
Жанр : Мультфильм, приключения, военный
Режиссер : Федор Дмитриев
Роли озвучивали : Пётр Фёдоров, Евгений Стычкин- -Описание : 1609 год. Идет война. Польско-литовские войска взяли в осаду Смоленск, но русский гарнизон во главе с воеводой Михаилом Шеиным готов держать оборону до конца. Смоленск — главная крепость на пути захватчиков к Москве, и его нельзя сдавать без боя. Об этом знают даже дети.
Мальчик Сашка лепит самодельные бомбы из теста и колдует в защиту города — вызывает на помощь Царя с Огненным щитом и Пламенным копьем. Пока волшебный царь не пришел, Сашка и его друг Федор просятся в помощники к воеводе. Им предстоит разрушить коварные планы польского короля Сигизмунда Третьего и справиться с нечистой силой, что по ночам бродит по осажденной крепости.-Страна : Россия
Производство : Кинокомпания CTB, Анимационная студия Мельница
Продолжительность : 01:16:43-Автор рипа и релиза : MegaPeer
Файл
Формат видео : AVI
Качество : WEB-DLRip
Видео : XVID, 688x288 (2.40:1), 24.000 fps, 1139 kbps avg, 0.240 bit/pixel
Аудио : Русский, MP3, 48.0 kHz, 2 ch, ~128 kbps
Субтитры : отсутствуют- -

Скриншоты


MediaInfo

General
Complete name : E:/Torrent_2/Крепость. щитом и мечом (2015) WEB-DLRip.avi
Format : AVI
Format/Info : Audio Video Interleave
File size : 700 MiB
Duration : 1h 16mn
Overall bit rate : 1 276 Kbps
Writing application : VirtualDubMod 1.5.10.3 | www.virtualdub-fr.org || (build 2550/release)
Writing library : VirtualDubMod build 2550/release
Video #0
ID : 0
Format : MPEG-4 Visual
Format profile : Advanced [email protected]
Format settings, BVOP : 1
Format settings, QPel : No
Format settings, GMC : No warppoints
Format settings, Matrix : Custom
Codec ID : XVID
Codec ID/Hint : XviD
Duration : 1h 16mn
Bit rate : 1 139 Kbps
Width : 688 pixels
Height : 288 pixels
Display aspect ratio : 2.40:1
Frame rate : 24.000 fps
Color space : YUV
Chroma subsampling : 4:2:0
Bit depth : 8 bits
Scan type : Progressive
Compression mode : Lossy
Bits/(Pixel*Frame) : 0.240
Stream size : 625 MiB (89%)
Writing library : XviD 73
Audio #1
ID : 1
Format : MPEG Audio
Format version : Version 1
Format profile : Layer 3
Codec ID : 55
Codec ID/Hint : MP3
Duration : 1h 16mn
Bit rate mode : Constant
Bit rate : 128 Kbps
Channel(s) : 2 channels
Sampling rate : 48.0 KHz
Compression mode : Lossy
Stream size : 70.2 MiB (10%)
Alignment : Aligned on interleaves
Interleave, duration : 42 ms (1.00 video frame)
Interleave, preload duration : 504 ms
Writing library : LAME3.99r
Encoding settings : -m s -V 4 -q 2 -lowpass 17 -b 128
Моя максимальная скорость отдачи 100КБ/c
Раздаю с 7:00 до 00:00 по Москве
Other forum [Profile] [PM]
Display posts from previous:    
Reply to topic

The time now is: Today 14:10

All times are GMT + 3 Hours



You cannot post new topics in this forum
You cannot reply to topics in this forum
You cannot edit your posts in this forum
You cannot delete your posts in this forum
You cannot vote in polls in this forum
You cannot attach files in this forum
You cannot download files in this forum