Today is a free download without charge Download

Секса Много Не Бывает / Un Heureux Evenement (Реми Безансон / Remi Besancon) [2011, Франция, Бельгия, драма, комедия, BDRip 720p] MVO [Лицензия] Sub Rus + Original Fre

Reply to topic
 
Author
Message

BoxeR ®

Gender:

Longevity: 9 years

Posts: 423

Торрент-статистика

Post 26-Jun-2012 11:43

[Quote]

-Секса Много Не Бывает / Un Heureux Evenement-«В ожидании чуда...» -Страна: Франция, Бельгия
Студия: Mandarin Films, Gaumont, France 2 Cinema
Жанр: драма, комедия
Год выпуска: 2011
Продолжительность: 01:49:28-Перевод: Профессиональный (многоголосый закадровый) [Лицензия]
Cубтитры: русские
Оригинальная аудиодорожка: французский
Режиссер: Реми Безансон-В ролях: Луиз Бургуан, Пио Мармай, Жозиан Баласко, Тьерри Фремон, Габриель Лазюр, Фирмин Ришар, Анаис, Дафна Бюрки, Ланник Готри, Жерар Любин, Николь Вальберг, Луи-До де Ланкесэ, Офелия Керинг, Амели Гленн, Доминик Байенс, Мишель Набокофф, Айссату Диоп, Анник Джонсон, Давид Фонкинос, Эрика Сэйнт, Виктория Бекер, Джульетт Бекер-Описание: Первое свидание. Первый поцелуй. Страсть... Первое "Я тебя люблю". Чувства переполняют тебя. Ты летишь и больше никогда не будешь прежней. Но впереди притаилось то, к чему нельзя подготовиться... Чувство, способное разрушить тебя полностью.- --Тип релиза: BDRip 720p
Контейнер: MKV-Видео: AVC at 4 205 Kbps, 1280 x 544 (2.353) at 24.000 fps
Аудио 1: Russian AC-3 at 448 Kbps, 6 channels, 48.0 KHz
Аудио 2: Francais DTS at 1 510 Kbps, 6 channels, 48.0 KHz

MediaInfo

General
Unique ID : 217430224912894921990636322350250657623 (0xA39389C0C14EFFFF9F92CE9461AD0757)
Complete name : D:\Torrent\Films\Seksa.mnogo.ne.byvaet.2011.P.BDRip.720p.mkv
Format : Matroska
Format version : Version 2
File size : 4.71 GiB
Duration : 1h 49mn
Overall bit rate : 6 163 Kbps
Movie name : IRONCLUB
Encoded date : UTC 2012-06-25 15:55:28
Writing application : mkvmerge v4.9.1 ('Ich will') built on Jul 11 2011 23:53:15
Writing library : libebml v1.2.1 + libmatroska v1.1.1
Video
ID : 1
Format : AVC
Format/Info : Advanced Video Codec
Format profile : [email protected]
Format settings, CABAC : Yes
Format settings, ReFrames : 5 frames
Codec ID : V_MPEG4/ISO/AVC
Duration : 1h 49mn
Bit rate : 4 205 Kbps
Width : 1 280 pixels
Height : 544 pixels
Display aspect ratio : 2.35:1
Frame rate : 24.000 fps
Color space : YUV
Chroma subsampling : 4:2:0
Bit depth : 8 bits
Scan type : Progressive
Bits/(Pixel*Frame) : 0.252
Stream size : 3.12 GiB (66%)
Title : Un.Heureux.Evenement.2011.FRENCH.720p.BluRay.x264-LOST
Writing library : x264 core 120 r2146 bcd41db
Encoding settings : cabac=1 / ref=5 / deblock=1:0:0 / analyse=0x3:0x113 / me=umh / subme=7 / psy=1 / psy_rd=1.00:0.15 / mixed_ref=1 / me_range=16 / chroma_me=1 / trellis=1 / 8x8dct=1 / cqm=0 / deadzone=21,11 / fast_pskip=0 / chroma_qp_offset=-3 / threads=12 / sliced_threads=0 / nr=0 / decimate=1 / interlaced=0 / bluray_compat=0 / constrained_intra=0 / bframes=3 / b_pyramid=2 / b_adapt=1 / b_bias=0 / direct=1 / weightb=1 / open_gop=0 / weightp=2 / keyint=250 / keyint_min=24 / scenecut=40 / intra_refresh=0 / rc_lookahead=40 / rc=2pass / mbtree=1 / bitrate=4205 / ratetol=1.0 / qcomp=0.60 / qpmin=0 / qpmax=69 / qpstep=4 / cplxblur=20.0 / qblur=0.5 / ip_ratio=1.40 / aq=1:1.00
Language : English
Default : Yes
Forced : No
Audio #1
ID : 2
Format : AC-3
Format/Info : Audio Coding 3
Mode extension : CM (complete main)
Format settings, Endianness : Big
Codec ID : A_AC3
Duration : 1h 49mn
Bit rate mode : Constant
Bit rate : 448 Kbps
Channel(s) : 6 channels
Channel positions : Front: L C R, Side: L R, LFE
Sampling rate : 48.0 KHz
Bit depth : 16 bits
Compression mode : Lossy
Stream size : 351 MiB (7%)
Title : DD 5.1 @ 448 kbps - MVO, R5
Language : Russian
Default : Yes
Forced : Yes
Audio #2
ID : 3
Format : DTS
Format/Info : Digital Theater Systems
Codec ID : A_DTS
Duration : 1h 49mn
Bit rate mode : Constant
Bit rate : 1 510 Kbps
Channel(s) : 6 channels
Channel positions : Front: L C R, Side: L R, LFE
Sampling rate : 48.0 KHz
Bit depth : 24 bits
Compression mode : Lossy
Stream size : 1.15 GiB (24%)
Title : DTS 5.1 @ 1536 kbs
Language : French
Default : No
Forced : No
Text
ID : 4
Format : UTF-8
Codec ID : S_TEXT/UTF8
Codec ID/Info : UTF-8 Plain Text
Title : R5
Language : Russian
Default : No
Forced : No
Menu
00:00:00.000 : en:00:00:00.000
00:09:07.958 : en:00:09:07.958
00:18:18.000 : en:00:18:18.000
00:25:24.417 : en:00:25:24.417
00:32:32.375 : en:00:32:32.375
00:40:48.375 : en:00:40:48.375
00:51:04.208 : en:00:51:04.208
01:04:50.083 : en:01:04:50.083
01:14:56.583 : en:01:14:56.583
01:23:12.792 : en:01:23:12.792
01:34:50.625 : en:01:34:50.625
01:40:55.083 : en:01:40:55.083

Скриншоты

     
Other forum [Profile] [PM]
Display posts from previous:    
Reply to topic

The time now is: Today 08:50

All times are GMT + 3 Hours



You cannot post new topics in this forum
You cannot reply to topics in this forum
You cannot edit your posts in this forum
You cannot delete your posts in this forum
You cannot vote in polls in this forum
You cannot attach files in this forum
You cannot download files in this forum