Today is a free download without charge Download

Маленький воробей, который не умел летать (Леон Эстрин) [2002, Россия, мультфильм, WEBRip]

Reply to topic
 
Author
Message

Omen ®

Longevity: 7 years 11 months

Posts: 181087

Торрент-статистика

Post 22-Nov-2015 12:02

[Quote]

Маленький воробей, который не умел летать
Страна: Россия
Жанр: мультфильм
Продолжительность: 00:06:17
Год выпуска: 2002
Режиссёр: Леон Эстрин
Музыка: группа "Mervent"
Описание: Про маленького воробья, который не умел летать, но умел танцевать.
Качество: WEBRip
Формат: AVI
Видео: 710 kbps, 608х464 (4:3), 25.000 fps, MPEG-4 Visual
Аудио: 128 kbps, 44.1 kHz, 2 channels, AC-3
Субтитры: отсутствуют

Подробные технические данные

GeneralComplete name : Маленький воробей (2002).aviFormat : AVIFormat/Info : Audio Video InterleaveFile size : 38.2 MiBDuration : 6mn 17sOverall bit rate : 848 KbpsWriting application : Lavf55.33.100
VideoID : 0Format : MPEG-4 VisualFormat profile : [email protected] settings, BVOP : NoFormat settings, QPel : NoFormat settings, GMC : No warppointsFormat settings, Matrix : Default (H.263)Codec ID : FMP4Duration : 6mn 17sBit rate : 710 KbpsWidth : 608 pixelsHeight : 464 pixelsDisplay aspect ratio : 4:3Frame rate : 25.000 fpsColor space : YUVChroma subsampling : 4:2:0Bit depth : 8 bitsScan type : ProgressiveCompression mode : LossyBits/(Pixel*Frame) : 0.101Stream size : 31.9 MiB (84%)Writing library : Lavc55.52.102
AudioID : 1Format : AC-3Format/Info : Audio Coding 3Mode extension : CM (complete main)Format settings, Endianness : BigCodec ID : 2000Duration : 6mn 17sBit rate mode : ConstantBit rate : 128 KbpsChannel(s) : 2 channelsChannel positions : Front: L RSampling rate : 44.1 KHzBit depth : 16 bitsCompression mode : LossyStream size : 5.76 MiB (15%)Alignment : Aligned on interleavesInterleave, duration : 35 ms (0.87 video frame)

Скриншоты

Other forum [Profile] [PM]
Display posts from previous:    
Reply to topic

The time now is: Today 08:44

All times are GMT + 3 Hours



You cannot post new topics in this forum
You cannot reply to topics in this forum
You cannot edit your posts in this forum
You cannot delete your posts in this forum
You cannot vote in polls in this forum
You cannot attach files in this forum
You cannot download files in this forum