Today is a free download without charge Download

Белоснежка: Месть гномов / Mirror Mirror (Тарсем Синх / Tarsem Singh) [2012, США, Фэнтези, Приключения, Сказка, BDRip 720p] от R.G. 20th Century Fox

Reply to topic
 
Author
Message

Hancock ®

Gender:

Longevity: 9 years 2 months

Posts: 73

Торрент-статистика

Post 25-Jun-2012 15:15

[Quote]

Белоснежка: Месть гномов / Mirror Mirror
--Страна: США
Студия: Relativity Media, Yuk Films, Goldmann Pictures
Жанр: Фэнтези, Приключения, Сказка
Год выпуска: 2012
Продолжительность: 01:45:52--Перевод: Профессиональный (дублированный)-Режиссер: Тарсем Синх / Tarsem Singh-В ролях: Джулия Робертс, Лили Коллинз, Шон Бин, Арми Хаммер, Натан Лейн, Джордан Прентис, Марк Повинелли, Джо Гнофо, Дэнни Вудберн, Себастьян Сарасено, Мартин Клеббэ-Описание: Злая Королева, мечтающая выйти замуж за красивого и богатого Принца, хитростью выдворяет из дворца Белоснежку и берёт власть в свои руки. Но милая девушка не погибла в тёмном дремучем лесу, а связалась с бандой гномов-разбойников. Вместе они отомстят Злодейке!-
Ripped by Hancock
-Качество видео: BDRip 720p
Формат видео: MKV
Видео кодек: H.26x
Аудио кодек: AC3
Видео:1280 x 690 (1.846) at 23.976 fps,AVC at 2470 Кбит/сек
Аудио:AC-3 at 448 Кбит/сек,6 каналов, 48,0 КГц-

MediaInfo

Общее
Уникальный идентификатор : 211614758751790915554459517006644725812 (0x9F3385225A5F956878A5830C4F974834)
Полное имя : C:\Documents and Settings\Admin\Рабочий стол\Belosnejka.Mest.Gnomov.2012.BDRip.(720p) (R.G. 20th Century Fox).mkv
Формат : Matroska
Версия формата : Version 2
Размер файла : 2,20 Гбайт
Продолжительность : 1 ч. 45 м.
Общий поток : 2977 Кбит/сек
Программа кодирования : XviD4PSP 6.0 / 53.6.0
Библиотека кодирования : XviD4PSP 6.0 / 53.6.0
Видео
Идентификатор : 1
Формат : AVC
Формат/Информация : Advanced Video Codec
Профиль формата : [email protected]
Параметр CABAC формата : Да
Параметр ReFrames формата : 3 кадра
Идентификатор кодека : V_MPEG4/ISO/AVC
Продолжительность : 1 ч. 45 м.
Битрейт : 2470 Кбит/сек
Номинальный битрейт : 2638 Кбит/сек
Ширина : 1280 пикселей
Высота : 690 пикселей
Соотношение сторон : 1,85:1
Соотношение сторон в оригинале : 1,85:1
Режим частоты кадров : Переменный
Частота кадров : 23,976 кадра/сек
Цветовое пространство : YUV
Субдискретизация насыщенности : 4:2:0
Битовая глубина : 8 бит
Тип развёртки : Прогрессивная
Бит/(Пиксели*Кадры) : 0.117
Размер потока : 1,83 Гбайт (83%)
Заголовок : Mirror.Mirror.2012.1080p.BluRay.DTS.x264-HDMaNiAcS
Библиотека кодирования : x264 core 116 r2019M 9cc407d
Настройки программы : cabac=1 / ref=3 / deblock=1:0:0 / analyse=0x3:0x133 / me=hex / subme=7 / psy=1 / psy_rd=1.00:0.20 / mixed_ref=1 / me_range=16 / chroma_me=1 / trellis=1 / 8x8dct=1 / cqm=0 / deadzone=21,11 / fast_pskip=1 / chroma_qp_offset=-3 / threads=8 / sliced_threads=0 / nr=0 / decimate=1 / interlaced=0 / bluray_compat=0 / constrained_intra=0 / bframes=3 / b_pyramid=1 / b_adapt=2 / b_bias=0 / direct=3 / weightb=1 / open_gop=0 / weightp=2 / keyint=230 / keyint_min=23 / scenecut=40 / intra_refresh=0 / rc_lookahead=40 / rc=cbr / mbtree=1 / bitrate=2638 / ratetol=1.0 / qcomp=0.60 / qpmin=10 / qpmax=51 / qpstep=4 / vbv_maxrate=2638 / vbv_bufsize=2638 / nal_hrd=none / ip_ratio=1.40 / aq=1:1.00
Язык : English
Default : Да
Forced : Нет
Аудио
Идентификатор : 2
Формат : AC-3
Формат/Информация : Audio Coding 3
Расширение режима : CM (complete main)
Параметр Endianness формата : Big
Идентификатор кодека : A_AC3
Продолжительность : 1 ч. 45 м.
Вид битрейта : Постоянный
Битрейт : 448 Кбит/сек
Каналы : 6 каналов
Расположение каналов : Front: L C R, Side: L R, LFE
Частота : 48,0 КГц
Битовая глубина : 16 бит
Метод сжатия : С потерями
Размер потока : 339 Мбайт (15%)
Язык : Russian
Default : Да
Forced : Нет

Скриншоты

       

_________________


Last edited by Hancock on 2012-06-25 22:03; edited 6 times in total
Other forum [Profile] [PM]

Delia

Gender:

Longevity: 11 years

Posts: 1821

Торрент-статистика

Post 25-Jun-2012 17:33 (after 2 hours 17 minutes)

[Quote]

Смотрю на медиа и думаю ,что рипы делаете не с блюраев ,а с рипов 1080р , тогда -это не BDRip , а HDRip.

_________________
Человек – это канат, натянутый между животным и сверхчеловеком, – канат над пропастью.
В человеке ценно то, что он мост, а не цель. Фридрих Ницше
Other forum [Profile] [PM]

Hancock ®

Gender:

Longevity: 9 years 2 months

Posts: 73

Торрент-статистика

Post 25-Jun-2012 21:09 (after 3 hours)

[Quote]

исправил

_________________
Other forum [Profile] [PM]

Delia

Gender:

Longevity: 11 years

Posts: 1821

Торрент-статистика

Post 25-Jun-2012 21:14 (after 4 minutes)

[Quote]

Что оценить качество рипа обязательно нужно делать семпл.

_________________
Человек – это канат, натянутый между животным и сверхчеловеком, – канат над пропастью.
В человеке ценно то, что он мост, а не цель. Фридрих Ницше
Other forum [Profile] [PM]

Hancock ®

Gender:

Longevity: 9 years 2 months

Posts: 73

Торрент-статистика

Post 25-Jun-2012 21:16 (after 2 minutes)

[Quote]

как делать

_________________
Other forum [Profile] [PM]

Hancock ®

Gender:

Longevity: 9 years 2 months

Posts: 73

Торрент-статистика

Post 25-Jun-2012 21:17 (after 1 minute)

[Quote]

я сколько делаю рипы мне еще не кто не говарил что бы семпл.  делать

_________________
Other forum [Profile] [PM]

Delia

Gender:

Longevity: 11 years

Posts: 1821

Торрент-статистика

Post 25-Jun-2012 21:43 (after 26 minutes)

[Quote]

Цитата:
Сэмпл: - желательно, но не обязательно.
Это небольшой отрывок из фильма для того, чтобы мы все могли оценить его качество. С помощью сэмпла Вы сможете посмотреть картинку, услышать качество звука и перевода.
Для точного определения содержимого раздачи, а также качества видео и аудио, типа перевода и других параметров, требующих более детальной оценки, модератор в праве потребовать создать видео-семпл. Релизер обязан предоставить семпл по требованию модератора. Семпл должен быть в том же формате, что и сам файл.
Как создать сэмпл-файл

_________________
Человек – это канат, натянутый между животным и сверхчеловеком, – канат над пропастью.
В человеке ценно то, что он мост, а не цель. Фридрих Ницше
Other forum [Profile] [PM]

Delia

Gender:

Longevity: 11 years

Posts: 1821

Торрент-статистика

Post 25-Jun-2012 21:54 (after 11 minutes)

[Quote]

Пожалуйста , вот семпл к этому рипу : http://multi-up.com/724026

_________________
Человек – это канат, натянутый между животным и сверхчеловеком, – канат над пропастью.
В человеке ценно то, что он мост, а не цель. Фридрих Ницше
Other forum [Profile] [PM]

Hancock ®

Gender:

Longevity: 9 years 2 months

Posts: 73

Торрент-статистика

Post 25-Jun-2012 21:56 (after 1 minute)

[Quote]

проверь пожалуста просто не требовали не когда семпел

_________________
Other forum [Profile] [PM]

Hancock ®

Gender:

Longevity: 9 years 2 months

Posts: 73

Торрент-статистика

Post 25-Jun-2012 21:57 (after 33 seconds)

[Quote]

delia ты в скайпе есть

_________________
Other forum [Profile] [PM]

Delia

Gender:

Longevity: 11 years

Posts: 1821

Торрент-статистика

Post 25-Jun-2012 22:06 (after 9 minutes)

[Quote]

Написала в личку.

_________________
Человек – это канат, натянутый между животным и сверхчеловеком, – канат над пропастью.
В человеке ценно то, что он мост, а не цель. Фридрих Ницше
Other forum [Profile] [PM]
Display posts from previous:    
Reply to topic

The time now is: Today 19:07

All times are GMT + 3 Hours



You cannot post new topics in this forum
You cannot reply to topics in this forum
You cannot edit your posts in this forum
You cannot delete your posts in this forum
You cannot vote in polls in this forum
You cannot attach files in this forum
You cannot download files in this forum