Today is a free download without charge Download

Значит война / This Means War (МакДжи / McG) [2012, США, боевик, мелодрама, комедия,BDRip 720р] [UNRATED ] от R.G. 20th Century Fox

Reply to topic
 
Author
Message

Hancock ®

Gender:

Longevity: 9 years 2 months

Posts: 73

Торрент-статистика

Post 24-Jun-2012 19:58

[Quote]

Значит, война / This Means War«2 шпиона - 1 проблема» -Страна: США
Жанр: комедия, боевик, мелодрама
Год выпуска: 2012
Продолжительность: 01:44:00-Перевод: Профессиональный (дублированный) [Blu-ray]-Режиссер: МакДжи / McG-В ролях: Том Харди, Крис Пайн, Риз Уизерспун, Тиль Швайгер, Челси Хэндлер, Джон Пол Руттан, Эбигейл Спенсер, Анджела Бассетт, Розмари Харрис, Джордж Тулиатос-Описание: Два секретных агента, которые к тому же и закадычные друзья, влюбляются в одну и ту же женщину, но ни один не желает уступить другому.-
Ripped by Hancock
-Качество видео: BDRip 720p
Формат видео: MKV-Видео кодек: H.26x
Аудио кодек: AC3-Видео: 1280 x 720 (2.400) at 23.976 fps,AVC at 2486 Кбит/сек
Аудио: AC-3 at 448 Кбит/сек,6 каналов, 48,0 КГц

MediaInfo

Общее
Уникальный идентификатор : 302719265204135151382432528005363042756 (0xE3BD9C193A76F36952C9A50301AA89C4)
Полное имя : C:\Documents and Settings\Admin\Рабочий стол\Znachit.vojna.2012.BDRip.(720p) (R.G. 20th Century Fox).mkv
Формат : Matroska
Версия формата : Version 2
Размер файла : 2,17 Гбайт
Продолжительность : 1 ч. 44 м.
Общий поток : 2994 Кбит/сек
Программа кодирования : XviD4PSP 6.0 / 53.6.0
Библиотека кодирования : XviD4PSP 6.0 / 53.6.0
Видео
Идентификатор : 1
Формат : AVC
Формат/Информация : Advanced Video Codec
Профиль формата : [email protected]
Параметр CABAC формата : Да
Параметр ReFrames формата : 3 кадра
Идентификатор кодека : V_MPEG4/ISO/AVC
Продолжительность : 1 ч. 44 м.
Битрейт : 2486 Кбит/сек
Номинальный битрейт : 2638 Кбит/сек
Ширина : 1280 пикселей
Высота : 720 пикселей
Соотношение сторон : 2,40:1
Режим частоты кадров : Переменный
Частота кадров : 23,976 кадра/сек
Цветовое пространство : YUV
Субдискретизация насыщенности : 4:2:0
Битовая глубина : 8 бит
Тип развёртки : Прогрессивная
Бит/(Пиксели*Кадры) : 0.113
Размер потока : 1,81 Гбайт (83%)
Библиотека кодирования : x264 core 116 r2019M 9cc407d
Настройки программы : cabac=1 / ref=3 / deblock=1:0:0 / analyse=0x3:0x133 / me=hex / subme=7 / psy=1 / psy_rd=1.00:0.20 / mixed_ref=1 / me_range=16 / chroma_me=1 / trellis=1 / 8x8dct=1 / cqm=0 / deadzone=21,11 / fast_pskip=1 / chroma_qp_offset=-3 / threads=8 / sliced_threads=0 / nr=0 / decimate=1 / interlaced=0 / bluray_compat=0 / constrained_intra=0 / bframes=3 / b_pyramid=1 / b_adapt=2 / b_bias=0 / direct=3 / weightb=1 / open_gop=0 / weightp=2 / keyint=230 / keyint_min=23 / scenecut=40 / intra_refresh=0 / rc_lookahead=40 / rc=cbr / mbtree=1 / bitrate=2638 / ratetol=1.0 / qcomp=0.60 / qpmin=10 / qpmax=51 / qpstep=4 / vbv_maxrate=2638 / vbv_bufsize=2638 / nal_hrd=none / ip_ratio=1.40 / aq=1:1.00
Язык : English
Default : Да
Forced : Нет
Аудио
Идентификатор : 2
Формат : AC-3
Формат/Информация : Audio Coding 3
Расширение режима : CM (complete main)
Параметр Endianness формата : Big
Идентификатор кодека : A_AC3
Продолжительность : 1 ч. 44 м.
Вид битрейта : Постоянный
Битрейт : 448 Кбит/сек
Каналы : 6 каналов
Расположение каналов : Front: L C R, Side: L R, LFE
Частота : 48,0 КГц
Битовая глубина : 16 бит
Метод сжатия : С потерями
Размер потока : 333 Мбайт (15%)
Язык : Russian
Default : Да
Forced : Нет

Скриншоты

       

_________________


Last edited by Hancock on 2012-06-25 22:32; edited 8 times in total
Other forum [Profile] [PM]

Hancock ®

Gender:

Longevity: 9 years 2 months

Posts: 73

Торрент-статистика

Post 24-Jun-2012 21:03 (after 1 hour 4 minutes)

[Quote]

Торрент перезалит !
Просьба качающих перехешировать раздачу, или встать заново на загрузку =)

_________________
Other forum [Profile] [PM]

Hancock ®

Gender:

Longevity: 9 years 2 months

Posts: 73

Торрент-статистика

Post 24-Jun-2012 21:11 (after 8 minutes)

[Quote]

не за что макс)

_________________
Other forum [Profile] [PM]

Delia

Gender:

Longevity: 11 years

Posts: 1821

Торрент-статистика

Post 25-Jun-2012 14:37 (after 17 hours)

[Quote]

Пожалуйста , медиаинфо. Так же какая это версия фильма, добавить в название темы.

_________________
Человек – это канат, натянутый между животным и сверхчеловеком, – канат над пропастью.
В человеке ценно то, что он мост, а не цель. Фридрих Ницше
Other forum [Profile] [PM]

Hancock ®

Gender:

Longevity: 9 years 2 months

Posts: 73

Торрент-статистика

Post 25-Jun-2012 21:09 (after 6 hours)

[Quote]

все исправил

_________________
Other forum [Profile] [PM]
Display posts from previous:    
Reply to topic

The time now is: Today 23:30

All times are GMT + 3 Hours



You cannot post new topics in this forum
You cannot reply to topics in this forum
You cannot edit your posts in this forum
You cannot delete your posts in this forum
You cannot vote in polls in this forum
You cannot attach files in this forum
You cannot download files in this forum