Today is a free download without charge Download

Крепость: щитом и мечом (Федор Дмитриев) [2015, мультфильм, история, приключения,​ военный, WEB-DLRip]

Reply to topic
 
Author
Message

DED ®

Gender:

Longevity: 7 years

Posts: 4153

Location: СССР

Торрент-статистика

Post 16-Nov-2015 10:51

[Quote]

--Крепость: щитом и мечом--
  • Год выпуска: 2015
  • Страна: Россия / Студия «Мельница», кинокомпания СТВ
  • Жанр: мультфильм, история, приключения,​ военный
  • Продолжительность: 01:16:43
  • Перевод: Не требуется-
  • Режиссёр: Федор Дмитриев-
  • В ролях: Пётр Фёдоров, Евгений Стычкин-
  • 1609 год. Идет война. Польско-литовские войска взяли в осаду Смоленск, но русский гарнизон во главе с воеводой Михаилом Шеиным готов держать оборону до конца. Смоленск – главная крепость на пути захватчиков к Москве, и его нельзя сдавать без боя. Об этом знают даже дети.
    Мальчик Сашка лепит самодельные бомбы из теста и колдует в защиту города – вызывает на помощь Царя с Огненным щитом и Пламенным копьем. Пока волшебный царь не пришел, Сашка и его друг Федор просятся в помощники к воеводе. Им предстоит разрушить коварные планы польского короля Сигизмунда Третьего и справиться с нечистой силой, что по ночам бродит по осажденной крепости.
    -
  • Премьера в России: 29 октября 2015--
  • --
  • Качество видео: WEB-DLRip
  • Формат видео: AVI
  • Видео кодек: XviD
  • Аудио кодек: AC3
  • Видео: 720x304 (2.35:1), 24.000 fps, XviD MPEG 4, ~1993 kbps avg, 0.379 bit/pixel
  • Аудио: 48.0 kHz, AC3 Dolby Digital, 3/2 (L,C,R,l,r) + LFE ch, ~384.00 kbps avg
  • Субтитры: нет
--

Media Info

General
Complete name : D:\O.S.A.\Мои видеозаписи\Мультфильмы\Kpep0Ct.Shitom.i.Me40m.2015.O.WEB-DLRip.avi
Format : AVI
Format/Info : Audio Video Interleave
File size : 1.28 GiB
Duration : 1h 16mn
Overall bit rate : 2 387 Kbps
Writing application : VirtualDubMod 1.5.10.3 | www.virtualdub-fr.org || (build 2550/release)
Writing library : VirtualDubMod build 2550/release
Video
ID : 0
Format : MPEG-4 Visual
Format profile : Advanced [email protected]
Format settings, BVOP : 2
Format settings, QPel : No
Format settings, GMC : No warppoints
Format settings, Matrix : Default (MPEG)
Codec ID : XVID
Codec ID/Hint : XviD
Duration : 1h 16mn
Bit rate : 1 993 Kbps
Width : 720 pixels
Height : 304 pixels
Display aspect ratio : 2.35:1
Frame rate : 24.000 fps
Color space : YUV
Chroma subsampling : 4:2:0
Bit depth : 8 bits
Scan type : Progressive
Compression mode : Lossy
Bits/(Pixel*Frame) : 0.379
Stream size : 1.07 GiB (84%)
Writing library : XviD 1.2.1 (UTC 2008-12-04)
Audio
ID : 1
Format : AC-3
Format/Info : Audio Coding 3
Mode extension : CM (complete main)
Codec ID : 2000
Duration : 1h 16mn
Bit rate mode : Constant
Bit rate : 384 Kbps
Channel(s) : 6 channels
Channel positions : Front: L C R, Side: L R, LFE
Sampling rate : 48.0 KHz
Bit depth : 16 bits
Compression mode : Lossy
Stream size : 211 MiB (16%)
Alignment : Split accross interleaves
Interleave, duration : 42 ms (1.00 video frame)
Interleave, preload duration : 500 ms
--        -- --

_________________

==============================
IGNOSCITO SAEPE ALTERI, NUNQUAM TIBI
Other forum [Profile] [PM]
Display posts from previous:    
Reply to topic

The time now is: Today 02:24

All times are GMT + 3 Hours



You cannot post new topics in this forum
You cannot reply to topics in this forum
You cannot edit your posts in this forum
You cannot delete your posts in this forum
You cannot vote in polls in this forum
You cannot attach files in this forum
You cannot download files in this forum