Today is a free download without charge Download

Давайте потанцуем / Shall we dance (Питер Челсом) [1080p] [2004 г., Мелодрама, BDRip720р]

Reply to topic
 
Author
Message

Delia ®

Gender:

Longevity: 10 years

Posts: 1821

Торрент-статистика

Post 24-Jun-2012 10:31

[Quote]

Давайте потанцуем / Shall We Dance«A new comedy about following your own lead.»--
Год выпуска: 2004
Страна: США
Жанр: драма, мелодрама, комедия, ...
Продолжительность: 01:46:22
Перевод: Профессиональный (дублированный)
Субтитры: Russian , english (srt)
Режиссер: Питер Челсом
Сценарий: Масаюки Суо, Одри Уэллс
Продюсер: Саймон Филдс, Дженнифер Берман, Мэри-Джо Уинклер, ...
Оператор: Джон де Борман
Композитор: Джон Олтмен, Габриэль Яред
Художник: Кэролайн Ханания, Сью Чан, Софи Карбонелл, ...
Монтаж: Чарльз Айрлэнд, Роберт Лейтон- В ролях: Ричард Гир (Richard Gere), Дженнифер Лопез (Jennifer Lopez), Сьюзен Сарандон (Susan Sarandon), Лиза Энн Уолтер (Lisa Ann Walter), Стэнли Туччи (Stanley Tucci), Анита Джиллет (Anita Gillette), Бобби Каннавале (Bobby Cannavale), Омар Бенсон Миллер (Omar Benson Miller), Тамара Хоуп (Tamara Hope), Старк Сэндс (Stark Sands), Ричард Дженкинс (Richard Jenkins), Ник Кэннон (Nick Cannon), Сара ЛаФлёр (Sarah Lafleur), Онали Эймс (Onalee Ames), Диана Сальваторе (Diana Salvatore), Дафна Король (Daphne Korol), Driton 'Tony' Dovolani, Катя Виршилас (Katya Virshilas), Дэвид Спэрроу (David Sparrow), Мэтт Гордон (Matt Gordon)
Описание: Благоустроенная жизнь, преданная жена и восхитительная дочь. Все в жизни хорошо, но чего-то все-таки не хватает&3; Каждый вечер, возвращаясь на поезде с работы, он видел прекрасную женщину в окне одного из зданий. И однажды он вышел на этой станции...-Рейтинг MPAA: -- --Качество: BDRip720р
Формат: MKV
Видео кодек: H.264 (AVC)
Аудио кодеk: AC3
Видео: 1280x720 (16:9), 23.976 fps, AVC, 5 436 Kbps
Аудио: AC3, 448 Kbps, 48.0 KHz, 6 ch
Отдельно на народ.ру:
AC3, 448 Kbps, 48.0 KHz, 6 ch, rus , DVO (Tycoon Studio)
AC3, 448 Kbps, 48.0 KHz, 6 ch, eng

МедиаИнфо

Код:
General
Complete name                    : Davayte.Potancuem.2004.BDRip720p-F.HD.mkv
Format                           : Matroska
File size                        : 4.37 GiB
Duration                         : 1h 46mn
Overall bit rate                 : 5 883 Kbps
Encoded date                     : UTC 2012-06-24 05:56:24
Writing application              : mkvmerge v5.4.0 ('Piper') built on Mar 10 2012 13:34:39
Writing library                  : libebml v1.2.3 + libmatroska v1.3.0
Video
ID                               : 1
Format                           : AVC
Format/Info                      : Advanced Video Codec
Format profile                   : [email protected]
Format settings, CABAC           : Yes
Format settings, ReFrames        : 8 frames
Muxing mode                      : Container [email protected]
Codec ID                         : V_MPEG4/ISO/AVC
Duration                         : 1h 46mn
Bit rate                         : 5 436 Kbps
Width                            : 1 280 pixels
Height                           : 720 pixels
Display aspect ratio             : 16:9
Frame rate                       : 23.976 fps
Color space                      : YUV
Chroma subsampling               : 4:2:0
Bit depth                        : 8 bits
Scan type                        : Progressive
Bits/(Pixel*Frame)               : 0.246
Stream size                      : 3.95 GiB (90%)
Writing library                  : x264 core 122 r2184 5c85e0a
Encoding settings                : cabac=1 / ref=8 / deblock=1:-2:-1 / analyse=0x3:0x113 / me=umh / subme=10 / psy=1 / psy_rd=1.00:0.15 / mixed_ref=1 / me_range=48 / chroma_me=1 / trellis=2 / 8x8dct=1 / cqm=0 / deadzone=21,11 / fast_pskip=0 / chroma_qp_offset=-1 / threads=6 / sliced_threads=0 / nr=0 / decimate=1 / interlaced=0 / bluray_compat=0 / constrained_intra=0 / bframes=7 / b_pyramid=2 / b_adapt=2 / b_bias=0 / direct=3 / weightb=1 / open_gop=0 / weightp=2 / keyint=240 / keyint_min=23 / scenecut=40 / intra_refresh=0 / rc=2pass / mbtree=0 / bitrate=5436 / ratetol=1.0 / qcomp=0.80 / qpmin=0 / qpmax=69 / qpstep=4 / cplxblur=20.0 / qblur=0.5 / ip_ratio=1.40 / pb_ratio=1.20 / aq=2:0.90
Color primaries                  : BT.709-5, BT.1361, IEC 61966-2-4, SMPTE RP177
Transfer characteristics         : BT.709-5, BT.1361
Matrix coefficients              : BT.709-5, BT.1361, IEC 61966-2-4 709, SMPTE RP177
Audio
ID                               : 2
Format                           : AC-3
Format/Info                      : Audio Coding 3
Mode extension                   : CM (complete main)
Codec ID                         : A_AC3
Duration                         : 1h 46mn
Bit rate mode                    : Constant
Bit rate                         : 448 Kbps
Channel(s)                       : 6 channels
Channel positions                : Front: L C R, Side: L R, LFE
Sampling rate                    : 48.0 KHz
Bit depth                        : 16 bits
Stream size                      : 341 MiB (8%)
Language                         : Russian
Text #1
ID                               : 3
Format                           : UTF-8
Codec ID                         : S_TEXT/UTF8
Codec ID/Info                    : UTF-8 Plain Text
Language                         : Russian
Text #2
ID                               : 4
Format                           : UTF-8
Codec ID                         : S_TEXT/UTF8
Codec ID/Info                    : UTF-8 Plain Text
Menu
00:00:00.000                     : en:Chapter 01
00:06:45.071                     : en:Chapter 02
00:18:34.488                     : en:Chapter 03
00:27:39.032                     : en:Chapter 04
00:34:31.360                     : en:Chapter 05
00:47:47.698                     : en:Chapter 06
00:56:22.045                     : en:Chapter 07
01:01:51.457                     : en:Chapter 08
01:08:51.085                     : en:Chapter 09
01:21:55.994                     : en:Chapter 10
01:30:38.349                     : en:Chapter 11
01:40:07.084                     : en:Chapter 12
01:46:21.458                     : en:Chapter 13

Знаете ли Вы, что...

» Съемки картины начались 23 июня 2003 года в Виннипеге (Канада) после того как Дженнифер Лопес закончила сниматься в «Unfinished Life».
» Картина является англоязычным римейком одноименного японского фильма 1996 года «Shall We Dance?», собравшего по тем временам рекордную для японской ленты сумму в 10 млн. $.
» Первоначально планировалось, что картину поставит Джон Туртлтауб.
» Сам проект начал разрабатываться в 1996 году. На главную мужскую роль намечали Тома Хэнкса.
» Из-за вспышки атипичной пневмонии съемочная группа переехала из Торонто в Виннипег.
» Драгоценности на 4 тысячи долларов, в которых снималась Сьюзен Сарандон, были украдены со съемочной площадки, а затем всплыли в деле об убийстве в Виннипеге 4 июля 2003 года.


Скриншоты

     
     

_________________
Человек – это канат, натянутый между животным и сверхчеловеком, – канат над пропастью.
В человеке ценно то, что он мост, а не цель. Фридрих Ницше
Other forum [Profile] [PM]

Dybrik13

Gender:

Longevity: 9 years 4 months

Posts: 9

Location: КИЕВ

Торрент-статистика

Post 24-Jun-2012 11:34 (after 1 hour 2 minutes)

[Quote]


_________________
Other forum [Profile] [PM]
Display posts from previous:    
Reply to topic

The time now is: Today 11:45

All times are GMT + 3 Hours



You cannot post new topics in this forum
You cannot reply to topics in this forum
You cannot edit your posts in this forum
You cannot delete your posts in this forum
You cannot vote in polls in this forum
You cannot attach files in this forum
You cannot download files in this forum