Today is a free download without charge Download

Парень с нашего кладбища (Илья Чижиков, Антон Чижиков) [2015, Россия, комедия, триллер, WEB-DL 720p] + Original Rus

Reply to topic
 
Author
Message

Omen ®

Longevity: 8 years 10 months

Posts: 181086

Торрент-статистика

Post 09-Nov-2015 21:03

[Quote]

Парень с нашего кладбища
Страна: Россия
Студия: Кинокомпания CTB
Жанр: комедия, триллер
Год выпуска: 2015
Продолжительность: 01:27:22
Перевод: Не требуется
Cубтитры: нет
Оригинальная аудиодорожка: русский
Режиссер: Илья Чижиков, Антон Чижиков
В ролях: Александр Паль, Игорь Жижикин, Владимир Сычев, Александр Ильин, Кристина Казинская, Полина Шашуро, Алексей Онежен, Евгений Волоцкий
Описание: Двадцатипятилетний провинциальный парень Коля приезжает в Москву к своему дяде. Ему нужно как можно быстрее отдать долг, который висит на нем с прошлого места работы, он готов работать каждый день. Точнее, каждую ночь. Так как дядя устраивает племянника ночным сторожем на… кладбище. Новый сторож приступает к первому дежурству, но к тому, что происходит на кладбище, когда стемнеет, он оказывается не готов. А впереди еще не одна ночь, и Коле нужно сделать выбор: разобраться с таинственными гостями или сбежать.

Sample
Тип релиза: WEB-DL 720p
Контейнер: MKV
Видео: MPEG4 AVC Video, H264, 16:9, 1278x720, 24 fps, 3992 kbps
Аудио: Russian (AC3, 6 ch, 384 kbps, 16 bits, 48.0 KHz) - оригинал

MediaInfo

General
Unique ID : 177977521276105784669042943979044224119 (0x85E53948AF8EB2DEA8441EDFEB803C77)
Complete name : K:\Парень с нашего кладбища 2015 WEB-DL 720p.mkv
Format : Matroska
Format version : Version 4 / Version 2
File size : 2.72 GiB
Duration : 1h 27mn
Overall bit rate : 4 465 Kbps
Encoded date : UTC 2015-10-25 19:29:07
Writing application : mkvmerge v8.3.0 ('Over the Horizon') 64bit
Writing library : libebml v1.3.1 + libmatroska v1.4.2
DURATION : 01:27:22.208000000
NUMBER_OF_FRAMES : 163819
NUMBER_OF_BYTES : 251625984
_STATISTICS_WRITING_APP : mkvmerge v8.3.0 ('Over the Horizon') 64bit
_STATISTICS_WRITING_DATE_UTC : 2015-10-25 19:29:07
_STATISTICS_TAGS : BPS DURATION NUMBER_OF_FRAMES NUMBER_OF_BYTES
Video
ID : 1
Format : AVC
Format/Info : Advanced Video Codec
Format profile : [email protected]
Format settings, CABAC : No
Format settings, ReFrames : 2 frames
Codec ID : V_MPEG4/ISO/AVC
Duration : 1h 27mn
Bit rate : 3 992 Kbps
Width : 1 278 pixels
Height : 720 pixels
Display aspect ratio : 16:9
Frame rate mode : Constant
Frame rate : 24.000 fps
Color space : YUV
Chroma subsampling : 4:2:0
Bit depth : 8 bits
Scan type : Progressive
Bits/(Pixel*Frame) : 0.181
Stream size : 2.44 GiB (89%)
Language : English
Default : Yes
Forced : No
Color primaries : BT.709
Transfer characteristics : BT.709
Matrix coefficients : BT.709
Audio
ID : 2
Format : AC-3
Format/Info : Audio Coding 3
Mode extension : CM (complete main)
Format settings, Endianness : Big
Codec ID : A_AC3
Duration : 1h 27mn
Bit rate mode : Constant
Bit rate : 384 Kbps
Channel count : 6 channels
Channel positions : Front: L C R, Side: L R, LFE
Sampling rate : 48.0 KHz
Bit depth : 16 bits
Compression mode : Lossy
Stream size : 240 MiB (9%)
Language : Russian
Default : Yes
Forced : No
Menu
00:00:00.000 : en:Глава 1
00:01:54.000 : en:Глава 2
00:08:16.000 : en:Глава 3
00:15:23.000 : en:Глава 4
00:24:18.000 : en:Глава 5
00:28:57.000 : en:Глава 6
00:35:21.000 : en:Глава 7
00:43:27.000 : en:Глава 8
00:47:16.000 : en:Глава 9
00:55:07.000 : en:Глава 10
01:05:00.000 : en:Глава 11
01:10:05.000 : en:Глава 12
01:16:55.000 : en:Глава 13
01:21:48.000 : en:Глава 14

Скриншоты

Other forum [Profile] [PM]
Display posts from previous:    
Reply to topic

The time now is: Today 21:43

All times are GMT + 3 Hours



You cannot post new topics in this forum
You cannot reply to topics in this forum
You cannot edit your posts in this forum
You cannot delete your posts in this forum
You cannot vote in polls in this forum
You cannot attach files in this forum
You cannot download files in this forum