Today is a free download without charge Download

Ночь в супермаркете / Foodfight! (Лоуренс Касанофф / Lawrence Kasanoff) [2012 г., мультфильм, комедия, семейный, Blu-ray 1080p]

Reply to topic
 
Author
Message

Koralina ®

Longevity: 9 years 7 months

Posts: 994

Location: Lithuania

Торрент-статистика

Post 22-Jun-2012 16:59

[Quote]

Ночь в супермаркете / Foodfight! Русское название: Ночь в супермаркете
Оригинальное название: Foodfight!
Год выхода: 2012
Режиссер: Лоуренс Касанофф / Lawrence Kasanoff
В ролях: Чарли Шин, Хилари Дафф, Хэйли Дафф, Ева Лонгория, Кристофер Ллойд, Крис Кэттэн, Уэйн Брэди, Грег Эллис, Мартин Клеббэ, Дэниел Фрэнзис
Страна производства: США
Продолжительность: 91 мин. / 01:31
Продюсер: Джошуа Уэкслер, Роберт Энгелман, Джордж Джонсен
Сценарий: Брент В. Фридман, Ребекка Суонсон, Шон Катрин Дерек
Жанр: мультфильм, комедия, семейный
Перевод : Профессиональный (полное дублирование)
Русские субтитры: есть
Описание: А вы знаете, что ночью, когда все люди покидают супермаркет, бакалейный отдел превращается в настоящий город: коробки становятся зданиями, проходы улицами. И живут в этом магазинном городе известные рекламные персонажи Мистер Клинер, кролик Энерджайзер, тунец Чарли, а также соблазнительная и коварная Леди-Икс. Ночи напролет они беспечно тусуются в самом крутом ночном клубе 'Копа-банана'. Но однажды в город приезжает Брэнд-Икс, который хочет взять все под свой контроль. Есть только один способ остановить злодея: вступить в ПРОДУКТОВУЮ БИТВУ!
Рейтинг MPAA: PG - Рекомендуется присутствие родителей
Рейтинг IMDB:
Рейтинг Kinopoisk:
Контейнер: BDMV
Качество HD: Blu-ray Remux 1080p
Формат аудио: DTS
Формат видео: MPEG-4
Видео: MPEG-4 AVC Video / 30000 kbps / 1080p / 23,976 fps / 16:9 / High Profile 4.1
Аудио: DTS-HD Master Audio / 5.1 / 48 kHz / 1958 kbps (DTS Core: 5.1 / 48 kHz / 1509 kbps / 16-bit)|Russian|
Аудио 2: Dolby TrueHD Audio / 5.1 / 48 kHz / 1501 kbps (AC3 Embedded: 5.1 / 48 kHz / 640 kbps) |Russian|
Аудио 3: Dolby Digital Audio / 2 / 48 kHz / 448 kbps |Russian|
Аудио 4: DTS-HD Master Audio / 5.1 / 48 kHz / 1979 kbps (DTS Core: 5.1 / 48 kHz / 1509 kbps / 16-bit) |English|

BDinfo

Код:
Disc Title:
Disc Size: 27 420 184 064 bytes
Protection: AACS
BD-Java: No
BDInfo: 0.5.3
Notes:
BDINFO HOME:
Cinema Squid
http://www.cinemasquid.com/blu-ray/tools/bdinfo
INCLUDES FORUMS REPORT FOR:
AVS Forum Blu-ray Audio and Video Specifications Thread
http://www.avsforum.com/avs-vb/showthread.php?t=1155731
********************
PLAYLIST: 00002.MPLS
********************
<--- BEGIN FORUMS PASTE --->
Код:
Total   Video
Title                                                           Codec   Length  Movie Size      Disc Size       Bitrate Bitrate Main Audio Track                          Secondary Audio Track
-----                                                           ------  ------- --------------  --------------  ------- ------- ------------------                        ---------------------
00002.MPLS                                                      AVC     1:31:16 27 161 161 728  27 420 184 064  39,68   30,00   DTS-HD Master 5.1 1979Kbps (48kHz/16-bit)
Код:
DISC INFO:
Disc Title:
Disc Size:      27 420 184 064 bytes
Protection:     AACS
BD-Java:        No
BDInfo:         0.5.3
PLAYLIST REPORT:
Name:                   00002.MPLS
Length:                 1:31:16 (h:m:s)
Size:                   27 161 161 728 bytes
Total Bitrate:          39,68 Mbps
VIDEO:
Codec                   Bitrate             Description
-----                   -------             -----------
MPEG-4 AVC Video        30000 kbps          1080p / 23,976 fps / 16:9 / High Profile 4.1
AUDIO:
Codec                           Language        Bitrate         Description
-----                           --------        -------         -----------
DTS-HD Master Audio             English         1979 kbps       5.1 / 48 kHz / 1979 kbps / 16-bit (DTS Core: 5.1 / 48 kHz / 1509 kbps / 16-bit)
DTS-HD Master Audio             Russian         1958 kbps       5.1 / 48 kHz / 1958 kbps / 16-bit (DTS Core: 5.1 / 48 kHz / 1509 kbps / 16-bit)
Dolby TrueHD Audio              Russian         1501 kbps       5.1 / 48 kHz / 1501 kbps / 16-bit (AC3 Embedded: 5.1 / 48 kHz / 640 kbps)
Dolby Digital Audio             Russian         448 kbps        2.0 / 48 kHz / 448 kbps
SUBTITLES:
Codec                           Language        Bitrate         Description
-----                           --------        -------         -----------
Presentation Graphics           Russian         37,871 kbps
FILES:
Name            Time In         Length          Size            Total Bitrate
----            -------         ------          ----            -------------
00005.M2TS      0:00:00.000     1:31:16.387     27 161 161 728  39 677
CHAPTERS:
Number          Time In         Length          Avg Video Rate  Max 1-Sec Rate  Max 1-Sec Time  Max 5-Sec Rate  Max 5-Sec Time  Max 10Sec Rate  Max 10Sec Time  Avg Frame Size  Max Frame Size  Max Frame Time
------          -------         ------          --------------  --------------  --------------  --------------  --------------  --------------  --------------  --------------  --------------  --------------
1               0:00:00.000     0:08:35.223     30 033 kbps     58 689 kbps     00:00:28.987    35 743 kbps     00:00:15.974    32 871 kbps     00:00:10.969    156 568 bytes   920 545 bytes   00:01:12.447
2               0:08:35.223     0:08:05.943     30 005 kbps     48 874 kbps     00:08:41.896    33 912 kbps     00:09:20.977    31 860 kbps     00:09:07.547    156 432 bytes   963 962 bytes   00:10:41.515
3               0:16:41.166     0:07:53.347     29 998 kbps     44 816 kbps     00:23:36.665    33 138 kbps     00:23:25.487    31 811 kbps     00:23:24.694    156 394 bytes   740 011 bytes   00:19:08.355
4               0:24:34.514     0:06:06.616     29 999 kbps     47 772 kbps     00:26:53.445    33 860 kbps     00:29:14.252    31 981 kbps     00:29:14.377    156 403 bytes   976 805 bytes   00:26:06.314
5               0:30:41.130     0:09:27.650     29 993 kbps     54 451 kbps     00:33:33.678    33 417 kbps     00:33:29.674    31 816 kbps     00:38:01.195    156 372 bytes   777 856 bytes   00:33:34.012
6               0:40:08.781     0:07:06.467     29 989 kbps     47 009 kbps     00:41:35.951    33 482 kbps     00:43:30.232    31 786 kbps     00:41:53.594    156 346 bytes   895 231 bytes   00:41:35.993
7               0:47:15.249     0:08:39.560     30 013 kbps     46 833 kbps     00:54:01.863    33 747 kbps     00:53:39.090    31 565 kbps     00:55:25.780    156 474 bytes   929 828 bytes   00:47:41.775
8               0:55:54.809     0:07:43.254     30 010 kbps     45 207 kbps     00:58:59.911    33 332 kbps     01:00:36.424    31 791 kbps     01:01:40.321    156 459 bytes   959 011 bytes   01:02:34.542
9               1:03:38.064     0:08:24.295     29 963 kbps     48 519 kbps     01:09:02.596    33 697 kbps     01:09:02.179    31 702 kbps     01:11:16.647    156 215 bytes   940 299 bytes   01:09:02.721
10              1:12:02.359     0:04:45.118     30 032 kbps     43 879 kbps     01:13:02.419    34 427 kbps     01:12:24.715    31 907 kbps     01:12:38.145    156 575 bytes   920 106 bytes   01:12:28.719
11              1:16:47.477     0:05:40.548     29 979 kbps     47 674 kbps     01:19:43.236    33 506 kbps     01:17:58.340    31 806 kbps     01:17:58.340    156 295 bytes   952 669 bytes   01:19:43.278
12              1:22:28.026     0:08:48.361     29 989 kbps     48 921 kbps     01:22:36.701    34 093 kbps     01:23:26.251    31 942 kbps     01:23:28.253    156 361 bytes   826 874 bytes   01:22:37.035
STREAM DIAGNOSTICS:
File            PID             Type            Codec           Language                Seconds                 Bitrate                 Bytes           Packets
----            ---             ----            -----           --------                --------------          --------------          -------------   -----
00005.M2TS      4113 (0x1011)   0x1B            AVC                                     5476,304                30 000                  20 536 297 369  111 691 658
00005.M2TS      4352 (0x1100)   0x86            DTS-HD MA       rus (Russian)           5476,304                1 958                   1 340 499 604   8 130 334
00005.M2TS      4353 (0x1101)   0x83            TrueHD          rus (Russian)           5476,304                2 141                   1 465 801 444   11 386 966
00005.M2TS      4354 (0x1102)   0x81            AC3             rus (Russian)           5476,304                448                     306 679 296     1 711 380
00005.M2TS      4355 (0x1103)   0x86            DTS-HD MA       eng (English)           5476,304                1 979                   1 354 710 776   8 211 344
00005.M2TS      4608 (0x1200)   0x90            PGS             rus (Russian)           5476,304                38                      25 924 304      149 212
<---- END FORUMS PASTE ---->
QUICK SUMMARY:
Disc Title:
Disc Size: 27 420 184 064 bytes
Protection: AACS
BD-Java: No
Playlist: 00002.MPLS
Size: 27 161 161 728 bytes
Length: 1:31:16
Total Bitrate: 39,68 Mbps
Video: MPEG-4 AVC Video / 30000 kbps / 1080p / 23,976 fps / 16:9 / High Profile 4.1
Audio: English / DTS-HD Master Audio / 5.1 / 48 kHz / 1979 kbps / 16-bit (DTS Core: 5.1 / 48 kHz / 1509 kbps / 16-bit)
Audio: Russian / DTS-HD Master Audio / 5.1 / 48 kHz / 1958 kbps / 16-bit (DTS Core: 5.1 / 48 kHz / 1509 kbps / 16-bit)
Audio: Russian / Dolby TrueHD Audio / 5.1 / 48 kHz / 1501 kbps / 16-bit (AC3 Embedded: 5.1 / 48 kHz / 640 kbps)
Audio: Russian / Dolby Digital Audio / 2.0 / 48 kHz / 448 kbps
Subtitle: Russian / 37,871 kbps
********************
PLAYLIST: 00000.MPLS
********************
<--- BEGIN FORUMS PASTE --->
Код:
Total   Video
Title                                                           Codec   Length  Movie Size      Disc Size       Bitrate Bitrate Main Audio Track                          Secondary Audio Track
-----                                                           ------  ------- --------------  --------------  ------- ------- ------------------                        ---------------------
00000.MPLS                                                      AVC     0:00:23 27 475 968      27 420 184 064  9,28    8,63    DD AC3 2.0 256Kbps
Код:
DISC INFO:
Disc Title:
Disc Size:      27 420 184 064 bytes
Protection:     AACS
BD-Java:        No
BDInfo:         0.5.3
PLAYLIST REPORT:
Name:                   00000.MPLS
Length:                 0:00:23 (h:m:s)
Size:                   27 475 968 bytes
Total Bitrate:          9,28 Mbps
VIDEO:
Codec                   Bitrate             Description
-----                   -------             -----------
MPEG-4 AVC Video        8626 kbps           1080p / 23,976 fps / 16:9 / High Profile 4.1
AUDIO:
Codec                           Language        Bitrate         Description
-----                           --------        -------         -----------
Dolby Digital Audio             Russian         256 kbps        2.0 / 48 kHz / 256 kbps / DN -4dB
FILES:
Name            Time In         Length          Size            Total Bitrate
----            -------         ------          ----            -------------
00000.M2TS      0:00:00.000     0:00:07.006     1 603 584       1 831
00001.M2TS      0:00:07.006     0:00:16.683     25 872 384      12 406
CHAPTERS:
Number          Time In         Length          Avg Video Rate  Max 1-Sec Rate  Max 1-Sec Time  Max 5-Sec Rate  Max 5-Sec Time  Max 10Sec Rate  Max 10Sec Time  Avg Frame Size  Max Frame Size  Max Frame Time
------          -------         ------          --------------  --------------  --------------  --------------  --------------  --------------  --------------  --------------  --------------  --------------
1               0:00:00.000     0:00:23.690     8 626 kbps      21 534 kbps     00:00:14.139    13 638 kbps     00:00:07.257    13 383 kbps     00:00:07.173    44 974 bytes    321 699 bytes   00:00:14.514
STREAM DIAGNOSTICS:
File            PID             Type            Codec           Language                Seconds                 Bitrate                 Bytes           Packets
----            ---             ----            -----           --------                --------------          --------------          -------------   -----
00000.M2TS      4113 (0x1011)   0x1B            AVC                                     6,882                   1 720                   1 479 975       8 105
00001.M2TS      4113 (0x1011)   0x1B            AVC                                     16,600                  11 598                  24 065 355      131 020
00001.M2TS      4352 (0x1100)   0x81            AC3             rus (Russian)           16,600                  258                     534 528         3 132
<---- END FORUMS PASTE ---->
QUICK SUMMARY:
Disc Title:
Disc Size: 27 420 184 064 bytes
Protection: AACS
BD-Java: No
Playlist: 00000.MPLS
Size: 27 475 968 bytes
Length: 0:00:23
Total Bitrate: 9,28 Mbps
Video: MPEG-4 AVC Video / 8626 kbps / 1080p / 23,976 fps / 16:9 / High Profile 4.1
Audio: Russian / Dolby Digital Audio / 2.0 / 48 kHz / 256 kbps / DN -4dB

Скриншоты

 
 
 
 

_________________
Other forum [Profile] [PM]
Display posts from previous:    
Reply to topic

The time now is: Today 10:54

All times are GMT + 3 Hours



You cannot post new topics in this forum
You cannot reply to topics in this forum
You cannot edit your posts in this forum
You cannot delete your posts in this forum
You cannot vote in polls in this forum
You cannot attach files in this forum
You cannot download files in this forum