Today is a free download without charge Download

Тайны старого отеля / The Innkeepers (Ти Уэст / Ti West) [2011, США, ужасы, триллер, BDRip 1080p] Dub Sub Rus, Eng + Original Eng

Reply to topic
 
Author
Message

Koralina ®

Longevity: 9 years 7 months

Posts: 994

Location: Lithuania

Торрент-статистика

Post 22-Jun-2012 16:42

[Quote]

Тайны старого отеля / The Innkeepers Русское название: Тайны старого отеля
Оригинальное название: The Innkeepers
Год выхода: 2011
Режиссер: Ти Уэст / Ti West
В ролях: Сара Пэкстон, Пэт Хили, Элисон Бартлетт, Jake Schleuter, Келли МакГиллис, Лена Данхэм, Джордж Риддл, Бренда Куни, Джон Спередакос, Шон Рейд, .
Страна производства: США
Продолжительность: 101 мин. / 01:41
Продюсер: Дерек Карл, Ларри Фесенден, Питер Фок
Сценарий: Ти Уэст
Премьера в мире: 12 марта 2011
Жанр: ужасы, триллер
Перевод: Профессиональный (дублированный)
Cубтитры: русские, английские
Оригинальная аудиодорожка: английский
Описание: Yankee Pedlar Inn является один из старейших Английских отелей и находится на грани закрытия. Клэр и Люк последние из работников этого отеля, за которым сложилась не самая хорошая репутация: якобы в стенах этого отеля регулярно появляются призраки. И вот, отважные охотники за привидениями решают, во что бы то ни стало, разгадать тайны отеля и вернуть ему былую славу
Рейтинг MPAA: R - Лицам до 17 лет обязательно присутствие взрослого
Рейтинг IMDB:
Рейтинг Kinopoisk:
Контейнер: MKV
Качество HD: BDRip 1080p
Формат аудио: DTS, AC-3
Формат видео: MPEG4 AVC
Видео: MPEG4 AVC / 1920x800 / 9483 Kbps / 23.976 fps
Аудио: Russian: AC-3 / 384 Kbps / 6 ch / 48.0 KHz
Аудио 2: English: DTS / 1510 Kbps / 6 ch / 48.0 KHz

MediaInfo

Код:
H:\Tayni.starogo.otelya.2011.x264.BDRip.(1080p).mkv
General
Complete name : H:\Tayni.starogo.otelya.2011.x264.BDRip.(1080p).mkv
Format : Matroska
File size : 8.22 GiB
Duration : 1h 41mn
Overall bit rate : 11.6 Mbps
Encoded date : UTC 2012-05-02 22:05:17
Writing application : mkvmerge v4.0.0 ('The Stars were mine') сборка от Jun 6 2010 16:18:42
Writing library : libebml v1.0.0 + libmatroska v1.0.0
Video #1
ID : 1
Format : AVC
Format/Info : Advanced Video Codec
Format profile : [email protected]
Format settings, CABAC : Yes
Format settings, ReFrames : 5 frames
Muxing mode : Container [email protected]
Codec ID : V_MPEG4/ISO/AVC
Duration : 1h 41mn
Bit rate : 9 483 Kbps
Nominal bit rate : 9 722 Kbps
Width : 1 920 pixels
Height : 800 pixels
Display aspect ratio : 2.40:1
Frame rate : 23.976 fps
Resolution : 24 bits
Colorimetry : 4:2:0
Scan type : Progressive
Bits/(Pixel*Frame) : 0.257
Stream size : 6.71 GiB (82%)
Title : The.Innkeepers.2011.1080p.BluRay.x264.DTS-HDChina
Writing library : x264 core 120 r2164 da19765
Encoding settings : cabac=1 / ref=5 / deblock=1:-3:-3 / analyse=0x3:0x113 / me=umh / subme=10 / psy=1 / psy_rd=1.10:0.00 / mixed_ref=1 / me_range=48 / chroma_me=1 / trellis=2 / 8x8dct=1 / cqm=0 / deadzone=21,11 / fast_pskip=0 / chroma_qp_offset=-4 / threads=9 / sliced_threads=0 / nr=0 / decimate=0 / interlaced=0 / bluray_compat=0 / constrained_intra=0 / bframes=6 / b_pyramid=2 / b_adapt=2 / b_bias=0 / direct=3 / weightb=1 / open_gop=0 / weightp=2 / keyint=250 / keyint_min=23 / scenecut=40 / intra_refresh=0 / rc_lookahead=40 / rc=2pass / mbtree=0 / bitrate=9722 / ratetol=1.0 / qcomp=0.60 / qpmin=0 / qpmax=69 / qpstep=4 / cplxblur=20.0 / qblur=0.5 / vbv_maxrate=40000 / vbv_bufsize=40000 / nal_hrd=none / ip_ratio=1.40 / pb_ratio=1.30 / aq=1:0.80
Audio #2
ID : 2
Format : AC-3
Format/Info : Audio Coding 3
Codec ID : A_AC3
Duration : 1h 41mn
Bit rate mode : Constant
Bit rate : 384 Kbps
Channel(s) : 6 channels
Channel positions : Front: L C R, Surround: L R, LFE
Sampling rate : 48.0 KHz
Stream size : 278 MiB (3%)
Language : Russian
Audio #3
ID : 3
Format : DTS
Format/Info : Digital Theater Systems
Codec ID : A_DTS
Duration : 1h 41mn
Bit rate mode : Constant
Bit rate : 1 510 Kbps
Channel(s) : 6 channels
Channel positions : Front: L C R, Surround: L R, LFE
Sampling rate : 48.0 KHz
Resolution : 24 bits
Video delay : 11ms
Stream size : 1.07 GiB (13%)
Text #4
ID : 4
Format : UTF-8
Codec ID : S_TEXT/UTF8
Codec ID/Info : UTF-8 Plain Text
Language : Russian
Text #5
ID : 5
Format : UTF-8
Codec ID : S_TEXT/UTF8
Codec ID/Info : UTF-8 Plain Text

Скриншоты

 
 
 
   

_________________
Other forum [Profile] [PM]
Similar theme
Forum Topic Author Torrent Replies Last Post
./templates/default/images/folder_dl.gif Приключения и квесты Secrets of the Dark: The Flower of Shadow Collector\'s Edition / Тайны Тьмы: Цветок Теней. Коллекционное издание [P] [RUS / ENG] (2014) Omen
1 | 0

0 | 2373

23

2015-06-11 12:04
Omen Latest
Display posts from previous:    
Reply to topic

The time now is: Today 11:02

All times are GMT + 3 Hours



You cannot post new topics in this forum
You cannot reply to topics in this forum
You cannot edit your posts in this forum
You cannot delete your posts in this forum
You cannot vote in polls in this forum
You cannot attach files in this forum
You cannot download files in this forum