Today is a free download without charge Download

Мельница кота / Kаķīša dzirnavas (Розе Стиебра / Roze Stiebra) [1994, мультфильм, экранизация, DVDRip] Dub

Reply to topic
 
Author
Message

Omen ®

Longevity: 7 years 11 months

Posts: 181087

Торрент-статистика

Post 01-Nov-2015 18:00

[Quote]

Мельница кота / Kаķīša dzirnavas
Страна: Латвия
Жанр: мультфильм, экранизация
Продолжительность: 00:56:29
Год выпуска: 1994
Перевод: Профессиональный (дублированный)
Русские субтитры: нет
Режиссёр: Розе Стиебра / Roze Stiebra
Дубляж: Студия СВ-Дубль (1995)
Роли дублировали: Александр Воеводин, Дмитрий Полонский, Леонид Белозорович, Ольга Голованова, Нина Тобилевич
Описание: По мотивам сказок Карлиса Скалбе.
Вечером накануне Рождества дети просят кота рассказать им сказку.
Кот рассказывает историю о том, как давным-давно был он хозяином мельницы. Собирая деньги на приданое трём своим дочерям, кот заключил договор с нечистым, но был обманут и лишился мельницы и дома. Суровые испытания выпали на долю кота, но его добросердечие помогло пережить все трудности.
Доп. информация: Выражаю благодарность booratino, записавшему этот фильм на VHS с канала TV6 в 1995 году. Если бы не он, русский дубляж этого фильма, возможно, был бы сейчас недоступен.
Качество: DVDRip
Формат: AVI
Видео: 1718 kbps, 656х496 (4:3), 25.000 fps, MPEG-4 Visual (XviD)
Аудио: 128 kbps, 48.0 kHz, 2 channels, MPEG Audio (MP3)
Субтитры: отсутствуют

Подробные технические данные

GeneralComplete name : Kаķīša dzirnavas (1994).aviFormat : AVIFormat/Info : Audio Video InterleaveFile size : 750 MiBDuration : 56mn 29sOverall bit rate : 1 856 KbpsWriting application : VirtualDubMod 1.5.10.2 (build 2540/release)Writing library : VirtualDub build 35491/release
VideoID : 0Format : MPEG-4 VisualFormat profile : Advanced [email protected] settings, BVOP : 2Format settings, QPel : NoFormat settings, GMC : No warppointsFormat settings, Matrix : Default (H.263)Codec ID : XVIDCodec ID/Hint : XviDDuration : 56mn 29sBit rate : 1 718 KbpsWidth : 656 pixelsHeight : 496 pixelsDisplay aspect ratio : 4:3Frame rate : 25.000 fpsColor space : YUVChroma subsampling : 4:2:0Bit depth : 8 bitsScan type : ProgressiveCompression mode : LossyBits/(Pixel*Frame) : 0.211Stream size : 694 MiB (93%)Writing library : XviD 64
AudioID : 1Format : MPEG AudioFormat version : Version 1Format profile : Layer 3Mode : Joint stereoMode extension : MS StereoCodec ID : 55Codec ID/Hint : MP3Duration : 56mn 29sBit rate mode : ConstantBit rate : 128 KbpsChannel(s) : 2 channelsSampling rate : 44.1 KHzCompression mode : LossyDelay relative to video : 23msStream size : 51.7 MiB (7%)Alignment : Split accross interleavesInterleave, duration : 40 ms (1.00 video frame)Interleave, preload duration : 500 ms

Скриншоты

Other forum [Profile] [PM]
Display posts from previous:    
Reply to topic

The time now is: Today 05:08

All times are GMT + 3 Hours



You cannot post new topics in this forum
You cannot reply to topics in this forum
You cannot edit your posts in this forum
You cannot delete your posts in this forum
You cannot vote in polls in this forum
You cannot attach files in this forum
You cannot download files in this forum