Сегодня идет свободное скачивание без начисления Download

Девушка с жемчужной сережкой / Girl with a Pearl Earring (Питер Веббер) [2003 г., драма, мелодрама, биография, BDRip 720]

Ответить на тему
 
Автор
Сообщение

Delia ®

Пол:

Стаж: 8 лет 11 месяцев

Сообщений: 1822

Торрент-статистика

Пост 17-Фев-2011 11:06

[Цитировать]

Девушка с жемчужной сережкойGirl with a Pearl Earring Год выпуска: 2003
Страна: Великобритания, Люксембург
Жанр: драма, мелодрама, биография
Продолжительность: 01.39.58
Перевод: Профессиональный (многоголосый, закадровый)
Режиссер: Питер Веббер
Продюссер: Питер Блок, Дарья Йовикич, Камерон МакКрекен
Сценарий: Трэйси Шевалье, Оливия Хитрид
Бюджет: 12 000 000
Премьера в мире: 31 августа 2003
7.10 (24 677)

В ролях: Колин Фёрт, Скарлетт Йоханссон, Том Уилкинсон, Джуди Парфитт, Киллиан Мёрфи, Эсси Дэвис, Джоэнна Скэнлэн, Алакина Манн, Крис Макхаллем, Гэбриэлль Рейди
Описание: 1665 год, голландский город Дельфт. В дом художника Йоханнеса Вермеера приходит 16-летняя девушка Гриет, чтобы работать служанкой. Вскоре она обращает на себя внимание живописца, потому что, несмотря на свой юный возраст, Гриет тонко чувствует не только результат творчества, но и сам процесс, механизм создания полотен, которым суждено будет жить в веках. Однажды Вермеер обращается с просьбой к Гриет — позировать ему для новой картины...
Качество: BDRip
Формат: MKV
Видео кодек: H.26x
Аудио кодек: AC3
Видео: Matroska: 2,89 Гбайт, 1 ч. 48 м.English, 2499 Кбит/сек, 1280*544(2,40:1), в 23,976 кадр/сек, AVC
Аудио: Russian, 448 Кбит/сек, 48,0 КГц, 16 бит, 2 канала(ов), AC-3
Аудио:English, 320 Кбит/сек, 48,0 КГц, 16 бит, 6 канала(ов), AC-3

MediaInfo:

Полное имя : E:\торрент\Girl with a Pearl Earring(2003) BDRip 720.mkv
Формат : Matroska
Размер файла : 2,18 Гбайт
Продолжительность : 1 ч. 39 м.
Общий поток : 3125 Кбит/сек
Дата кодирования : UTC 2011-02-17 05:29:29
Программа кодирования : mkvmerge v4.5.0 ('Speed of Light') built on Feb 1 2011 02:10:32
Библиотека кодирования : libebml v1.2.0 + libmatroska v1.1.0
Видео
Идентификатор : 1
Формат : AVC
Формат/Информация : Advanced Video Codec
Профиль формата : [email protected]
Параметр CABAC формата : Да
Параметр ReFrames формата : 16 кадры
Идентификатор кодека : V_MPEG4/ISO/AVC
Продолжительность : 1 ч. 39 м.
Битрейт : 2359 Кбит/сек
Ширина : 1280 пикс.
Высота : 544 пикс.
Соотношение сторон : 2,35:1
Частота кадров : 23,976 кадр/сек
Цветовое пространство : YUV
Подвыборка цветности : 4:2:0
Битовая глубина : 8 бит
Тип развёртки : Прогрессивная
Бит/(Пиксели*Кадры) : 0.141
Размер потока : 1,60 Гбайт (73%)
Библиотека кодирования : x264 core 114 r1900 60ef1f8
Настройки программы : cabac=1 / ref=16 / deblock=1:-3:-3 / analyse=0x3:0x133 / me=umh / subme=7 / psy=1 / psy_rd=1.00:0.00 / mixed_ref=1 / me_range=32 / chroma_me=1 / trellis=2 / 8x8dct=1 / cqm=0 / deadzone=21,11 / fast_pskip=1 / chroma_qp_offset=-2 / threads=6 / sliced_threads=0 / nr=0 / decimate=1 / interlaced=0 / constrained_intra=0 / bframes=6 / b_pyramid=2 / b_adapt=1 / b_bias=0 / direct=1 / weightb=1 / open_gop=0 / weightp=2 / keyint=250 / keyint_min=23 / scenecut=40 / intra_refresh=0 / rc_lookahead=40 / rc=2pass / mbtree=1 / bitrate=2359 / ratetol=1.0 / qcomp=0.80 / qpmin=5 / qpmax=51 / qpstep=4 / cplxblur=20.0 / qblur=0.5 / ip_ratio=1.40 / aq=1:1.00
Язык : English
Аудио #1
Идентификатор : 2
Формат : AC-3
Формат/Информация : Audio Coding 3
Расширение режима : CM (complete main)
Идентификатор кодека : A_AC3
Продолжительность : 1 ч. 39 м.
Вид битрейта : Постоянный
Битрейт : 448 Кбит/сек
Канал(ы) : 2 канала(ов)
Расположение каналов : Front: L R
Частота : 48,0 КГц
Битовая глубина : 16 бит
Метод сжатия : С потерями
Размер потока : 320 Мбайт (14%)
Язык : Russian
Аудио #2
Идентификатор : 3
Формат : AC-3
Формат/Информация : Audio Coding 3
Расширение режима : CM (complete main)
Идентификатор кодека : A_AC3
Продолжительность : 1 ч. 39 м.
Вид битрейта : Постоянный
Битрейт : 320 Кбит/сек
Канал(ы) : 6 канала(ов)
Расположение каналов : Front: L C R, Side: L R, LFE
Частота : 48,0 КГц
Битовая глубина : 16 бит
Метод сжатия : С потерями
Размер потока : 229 Мбайт (10%)
Язык : English

Скриншоты

        

_________________
Человек – это канат, натянутый между животным и сверхчеловеком, – канат над пропастью.
В человеке ценно то, что он мост, а не цель. Фридрих Ницше


Последний раз редактировалось: Delia (2011-08-25 21:54), всего редактировалось 6 раз(а)
Вне форума [Профиль] [ЛС]
Похожие темы
Форум Тема Автор Торрент Отв. Посл. сообщение
./templates/default/images/folder_dl.gif Эротические игры Virtual date girls: Erica (RUS) / Виртуальные девушки Эрика русская версия [Demo] [RUS / RUS] (2013) (1.0) Omen
0 | 1

0 | 5326

8

2013-09-21 15:25
Omen Последнее
Показать сообщения:    
Ответить на тему

Текущее время: Сегодня 14:05

Часовой пояс: GMT + 3



Вы не можете начинать темы
Вы не можете отвечать на сообщения
Вы не можете редактировать свои сообщения
Вы не можете удалять свои сообщения
Вы не можете голосовать в опросах
Вы не можете прикреплять файлы к сообщениям
Вы не можете скачивать файлы