Today is a free download without charge Download

Закрытая школа 3 сезон (1-38 серии) (2012) SATRip[

Reply to topic
 
Author
Message

KirovSOFT ®

Gender:

Longevity: 9 years 6 months

Posts: 998

Location: Кировская область -Оричи

Торрент-статистика

Post 19-Jun-2012 22:05

[Quote]

Закрытая школа 3 сезон (1-38 серии) (2012) SATRip

Русское название: Закрытая школа
Год выпуска: 2012
Жанр: Триллер, Приключения

Режиссер: Олег Асадулин, Константин Статский, Андрей Записов
Актеры: Антон Хабаров, Татьяна Васильева, Михаил Сафронов (II), Юлия Агафонова, Ксения Энтелис, Виталий Емашов, Иван Гордиенко, Марина Казанкова, Алексей Коряков, Павел Прилучный, Агата Муцениеце, Татьяна Космачева, Игорь Юртаев, Андрей Негинский, Евгения Осипова, Алина Васильева, Луиза-Габриэла Бровина, Ирина Крутик, Александр Яцко-Описание фильма:
«Закрытая школа» - это мистический триллер, главными героями которого стали ученики элитной школы-интерната. В лесу, вдали от городской суеты, стоит старинная усадьба, в которой живут и учатся самые разные дети: и отпрыски богатых родителей, и талантливые ребята из бедных семей. Они совершенно разные, но у них есть общая черта - они брошены, одиноки и очень ранимы. Как и любые другие дети, по вечерам они рассказывают друг другу страшные истории. О том, что лес, глухой стеной окружающий их школу, хранит в себе страшное зло. Говорят, в нем водятся странные существа и без вести пропадают люди. Дети смеются и подшучивают над этими слухами, не догадываясь, что большинство из этих страшилок - правда. Лишь когда бесследно исчезает один из преподавателей, ученики начинают собственное расследование... Здесь нет второстепенных персонажей. Здесь нет неважных событий. У каждого есть своя тайна и свой личный скелет в шкафу. Герои балансируют между любовью и ненавистью, дружбой и соперничеством, добром и злом. Не подозревая, что настоящая опасность подстерегает их не в стенах школы, а в глубине леса, где балансировать придется между жизнью и смертью...
Третий сезон не похож на предыдущие: столько любви, стольких смертей, стольких сплетен и интриг в «Закрытой школе» еще не было — будет просто невероятно!»
Ученики частной школы «Логос» возвращаются к урокам. И вновь устремляются на поиски ответов на вопросы, которые подбрасывает им судьба. Во «взрослом мире» узел многочисленных интриг закручивается все туже. Что за странный зал с нацистской символикой обнаружился в старой часовне? Приблизится ли Андрей к разгадке пропажи своих родителей? Ребята вынуждены верить друг другу, но их дружбе, любви и верности предстоит пройти немало серьезных испытаний — предательства, смерти, болезни…-Продолжительность: ~ 00:49:00 серия
Качество видео: SATRip
Сэмпл: Скачать
Видеокодек: DivX 4/5/6
Битрейт видео: ~1800 кб/с
Размер кадра: 704х400
Аудиокодек: MP3
Битрейт аудио: 128 кб/с

MediaInfo:

Format : AVI
Format/Info : Audio Video Interleave
File size : 9.24 MiB
Duration : 46s 120ms
Overall bit rate : 1 681 Kbps
Writing application : MEncoder SVN-r30881(20100311-gcc4.3.3)
Writing library : MPlayer
Video #0
ID : 0
Format : MPEG-4 Visual
Format profile : Advanced [email protected]
Format settings, BVOP : 2
Format settings, QPel : No
Format settings, GMC : No warppoints
Format settings, Matrix : Default (H.263)
Codec ID : XVID
Codec ID/Hint : XviD
Duration : 46s 120ms
Bit rate : 1 540 Kbps
Width : 704 pixels
Height : 400 pixels
Display aspect ratio : 16:9
Frame rate : 25.000 fps
Color space : YUV
Chroma subsampling : 4:2:0
Bit depth : 8 bits
Scan type : Progressive
Compression mode : Lossy
Bits/(Pixel*Frame) : 0.219
Stream size : 8.47 MiB (92%)
Writing library : XviD 1.2.1 (UTC 2008-12-04)
Audio #1
ID : 1
Format : MPEG Audio
Format version : Version 1
Format profile : Layer 3
Mode : Joint stereo
Mode extension : MS Stereo
Codec ID : 55
Codec ID/Hint : MP3
Duration : 46s 2ms
Bit rate mode : Constant
Bit rate : 128 Kbps
Channel(s) : 2 channels
Sampling rate : 44.1 KHz
Compression mode : Lossy
Delay relative to video : 40ms
Stream size : 719 KiB (8%)
Alignment : Aligned on interleaves
Interleave, duration : 26 ms (0.65 video frame)
Interleave, preload duration : 522 ms
Writing library : LAME3.
Внимание! Раздача ведётся путём добавления новых серий

Внимание! Раздача ведётся путём добавления новых серий. Описание обновления торрента:

Внимание! Раздача ведётся путём добавления новых серий; при каждом добавлении создётся новый торрент. Чтобы начать докачку новой серии, пользователям необходимо сделать следующее:
(1) остановить скачивание,
(2) удалить старый торрент у себя из клиента (старые серии удалять не надо),
(3) скачать новый торрент и запустить его у себя в клиенте вместо старого, при этом указать клиенту путь в старую папку куда и должно происходить скачивание новых серий.
Ваш клиент при этом должен произвести хеширование (проверку) старой папки (если не производит сам - помогите ему сделать это), и будет докачивать только те серии которых у вас ещё нет. Старые серии при этом не удаляются, а продолжают раздаваться!
Eсли вы уже удалили старые серии, то предотвратить повторную закачку старых серий можно, отжав галочку в соответсвующих местах при запуске нового торрента. По возможности, желательно не удалять старые серии как можно дольше чтобы релизёр не столько продолжал раздавать старые серии, а смог сконцентрироваться на новых.

Скриншоты:

         
Обновление релиза с понедельника по четверг после 21:00!
Добавлена 38 серия! Перекачайте торрент!
Приятного просмотра!!!

_________________
Other forum [Profile] [PM]
Display posts from previous:    
Reply to topic

The time now is: Today 10:29

All times are GMT + 3 Hours



You cannot post new topics in this forum
You cannot reply to topics in this forum
You cannot edit your posts in this forum
You cannot delete your posts in this forum
You cannot vote in polls in this forum
You cannot attach files in this forum
You cannot download files in this forum