Today is a free download without charge Download

Небесный суд / Серии: 1-4 из 4 (Алена Званцова) [2011, Драма, DVDRip]

Reply to topic
 
Author
Message

BoxeR ®

Gender:

Longevity: 9 years 6 months

Posts: 423

Торрент-статистика

Post 19-Jun-2012 10:32

[Quote]

Небесный суд
Год выпуска: 2011
Производство: Россия, централ партнершип
Жанр: драма
Продолжительность: 00:45:00
Режиссёр: Алена Званцова--В ролях: Константин Хабенский, Михаил Пореченков, Дмитрий Марьянов, Ингеборга Дапкунайте, Анна Михалкова, Никита Зверев, Олег Мазуров, Яна Сексте, Марина Дуксова, Даниэла Стоянович--Описание: Адвокатская драма с неожиданным ракурсом прочтения. Адвокаты Андрей и Вениамин - друзья, которых объединяет многое, но работа то и дело ставит их на разные стороны баррикад. Особенность их положения в том, что судебные процессы, в которых они участвуют, происходят не в земной жизни, а в загробной. Они - участники Небесного Суда, решающего, куда направить душу человека после смерти, в Рай или в Ад. В одно из дел неожиданно вмешиваются личные интересы Андрея: на скамью подсудимых попадает человек, сделавший предложение его вдове.-Сэмпл: http://multi-up.com/720765
Качество: DVDRip
Формат: AVI
Видео кодек: XviD
Аудио кодек: AC3
Видео: MPEG4, XviD, 720x400 (16/9), 25.000 fps, 1 561 Kbps (0.217 bit/pixel)
Аудио: AC-3, 48.0 KHz, 6 ch, 448 Kbps, CBR

Реклама отсутствует!

MI

General
Complete name : I:\ЗАКАЧКИ\Nebesnyi.Sud.1-4serii.iz.4.2012.O.DVDRip.IRONCLUB\Nebesnyi.Sud.1.seriya.iz.4.2012.O.DVDRip.IRONCLUB.avi
Format : AVI
Format/Info : Audio Video Interleave
File size : 700 MiB
Duration : 48mn 26s
Overall bit rate : 2 019 Kbps
Writing application : VirtualDubMod 1.5.10.3 | www.virtualdub-fr.org || (build 2550/release)
Video
ID : 0
Format : MPEG-4 Visual
Format profile : Advanced [email protected]
Format settings, BVOP : 2
Format settings, QPel : No
Format settings, GMC : No warppoints
Format settings, Matrix : Custom
Codec ID : XVID
Codec ID/Hint : XviD
Duration : 48mn 26s
Bit rate : 1 561 Kbps
Width : 720 pixels
Height : 400 pixels
Display aspect ratio : 16:9
Frame rate : 25.000 fps
Color space : YUV
Chroma subsampling : 4:2:0
Bit depth : 8 bits
Scan type : Progressive
Compression mode : Lossy
Bits/(Pixel*Frame) : 0.217
Stream size : 541 MiB (77%)
Writing library : XviD 1.2.1 (UTC 2008-12-04)
Audio
ID : 1
Format : AC-3
Format/Info : Audio Coding 3
Mode extension : CM (complete main)
Codec ID : 2000
Duration : 48mn 24s
Bit rate mode : Constant
Bit rate : 448 Kbps
Channel(s) : 6 channels
Channel positions : Front: L C R, Side: L R, LFE
Sampling rate : 48.0 KHz
Bit depth : 16 bits
Compression mode : Lossy
Stream size : 155 MiB (22%)
Alignment : Split accross interleaves
Interleave, duration : 40 ms (1.00 video frame)
Interleave, preload duration : 500 ms

Скриншоты

     
Other forum [Profile] [PM]
Display posts from previous:    
Reply to topic

The time now is: Today 12:53

All times are GMT + 3 Hours



You cannot post new topics in this forum
You cannot reply to topics in this forum
You cannot edit your posts in this forum
You cannot delete your posts in this forum
You cannot vote in polls in this forum
You cannot attach files in this forum
You cannot download files in this forum