Today is a free download without charge Download

Крыса (Александр Андраникян) [1988, Рисованный мультфильм, WEBRip][Арменфильм]

Reply to topic
 
Author
Message

Omen ®

Longevity: 7 years 11 months

Posts: 181087

Торрент-статистика

Post 25-Oct-2015 00:00

[Quote]

Крыса
Страна: СССР
Жанр: Рисованный мультфильм
Продолжительность: 00:10:02
Год выпуска: 1988
Русские субтитры: нет
Режиссёр: Александр Андраникян
Описание: Мир на грани саморазрушения, водитель мусорной машины невольно становиться инициатором полной катастрофы, причем же тут крыса?!… (для взрослых)
Доп. информация: «Арменфильм»
Композитор: С.Шакарян
Оператор: А.Кюрдиан
Директор: С.Петросян
Художники-постановщики:А.Андраникян,Р.Саакянц
,С.Постраджян,А.Петросян,
Качество: WEBRip
Формат: AVI
Видео: 640x480 (1.33:1), 25 fps, XviD MPEG-4 ~2086 kbps avg, 0.27 bit/pixel
Аудио: 48 kHz, AC3 Dolby Digital, 1/0 (C) ch, ~96.00 kbps avg
Субтитры: нет

Подробные технические данные

Format : AVIFormat/Info : Audio Video InterleaveFile size : 157 MiBDuration : 10mn 2sOverall bit rate : 2 192 KbpsMovie name :Writing application : VirtualDubModRus 1.5.10.2 (build 2542/release)Copyright : Rutracker.orgComment : WEBRip by dvdss
VideoID : 0Format : MPEG-4 VisualFormat profile : Advanced [email protected] settings, BVOP : 2Format settings, QPel : NoFormat settings, GMC : No warppointsFormat settings, Matrix : CustomCodec ID : XVIDCodec ID/Hint : XviDDuration : 10mn 2sBit rate : 2 086 KbpsWidth : 640 pixelsHeight : 480 pixelsDisplay aspect ratio : 4:3Frame rate : 25.000 fpsColor space : YUVChroma subsampling : 4:2:0Bit depth : 8 bitsScan type : ProgressiveCompression mode : LossyBits/(Pixel*Frame) : 0.272Stream size : 150 MiB (95%)Writing library : XviD 65
AudioID : 1Format : AC-3Format/Info : Audio Coding 3Mode extension : CM (complete main)Format settings, Endianness : BigCodec ID : 2000Duration : 10mn 2sBit rate mode : ConstantBit rate : 96.0 KbpsChannel(s) : 1 channelChannel positions : Front: CSampling rate : 48.0 KHzBit depth : 16 bitsCompression mode : LossyStream size : 6.89 MiB (4%)Alignment : Split accross interleavesInterleave, duration : 40 ms (1.00 video frame)Interleave, preload duration : 500 ms

Скриншоты

Other forum [Profile] [PM]
Display posts from previous:    
Reply to topic

The time now is: Today 19:48

All times are GMT + 3 Hours



You cannot post new topics in this forum
You cannot reply to topics in this forum
You cannot edit your posts in this forum
You cannot delete your posts in this forum
You cannot vote in polls in this forum
You cannot attach files in this forum
You cannot download files in this forum