Today is a free download without charge Download

Три мелодии / Three melodies (Гарри Бардин) [2013, музыкальный анимационный фильм, WEBRip]

Reply to topic
 
Author
Message

Omen ®

Longevity: 7 years 11 months

Posts: 181087

Торрент-статистика

Post 24-Oct-2015 12:00

[Quote]

Три мелодии / Three melodies
Страна: Россия
Жанр: музыкальный анимационный фильм
Продолжительность: 00:17:33
Год выпуска: 2013
Режиссёр: Гарри Бардин
Описание: Три сюжета, навеянные классическими музыкальными композициями:
"Элегия" на музыку Жюля Массне
"Исход" на спиричуэл "Go down Moses"
"Рондо" на музыку Камиля Сен-Санса
Качество: WEBRip
Формат: AVI
Видео: 2389 kbps, 720х416 (1.731), 25.000 fps, MPEG-4 Visual (XviD)
Аудио: 192 kbps, 48.0 kHz, 2 channels, MPEG Audio (MP3)
Субтитры: отсутствуют

Подробные технические данные

GeneralComplete name : Три мелодии (2013).aviFormat : AVIFormat/Info : Audio Video InterleaveFile size : 326 MiBDuration : 17mn 33sOverall bit rate : 2 594 KbpsWriting application : Lavf55.33.100
VideoID : 0Format : MPEG-4 VisualFormat profile : Advanced [email protected] settings, BVOP : 2Format settings, QPel : NoFormat settings, GMC : No warppointsFormat settings, Matrix : Default (H.263)Codec ID : XVIDCodec ID/Hint : XviDDuration : 17mn 33sBit rate : 2 389 KbpsWidth : 720 pixelsHeight : 416 pixelsDisplay aspect ratio : 1.731Frame rate : 25.000 fpsColor space : YUVChroma subsampling : 4:2:0Bit depth : 8 bitsScan type : ProgressiveCompression mode : LossyBits/(Pixel*Frame) : 0.319Stream size : 300 MiB (92%)Writing library : XviD 64
AudioID : 1Format : MPEG AudioFormat version : Version 1Format profile : Layer 3Mode : Joint stereoMode extension : MS StereoCodec ID : 55Codec ID/Hint : MP3Duration : 17mn 33sBit rate mode : ConstantBit rate : 192 KbpsChannel(s) : 2 channelsSampling rate : 48.0 KHzCompression mode : LossyStream size : 24.1 MiB (7%)Alignment : Aligned on interleavesInterleave, duration : 24 ms (0.60 video frame)Interleave, preload duration : 24 msWriting library : LAME3.99.5

Скриншоты

Other forum [Profile] [PM]
Display posts from previous:    
Reply to topic

The time now is: Today 12:48

All times are GMT + 3 Hours



You cannot post new topics in this forum
You cannot reply to topics in this forum
You cannot edit your posts in this forum
You cannot delete your posts in this forum
You cannot vote in polls in this forum
You cannot attach files in this forum
You cannot download files in this forum