Today is a free download without charge Download

(Rock, Pop, Country, Soul) Пол Маккартни - Концерт в Белом Доме / Paul McCartney - In Performance at the White House (2010) HDTVRip

Reply to topic
 
Author
Message

Igor 1968 ®

Gender:

Longevity: 9 years

Posts: 140

Location: Харьков Украина

Торрент-статистика

Post 18-Jun-2012 23:10

[Quote]

Пол Маккартни - Концерт в Белом Доме / Paul McCartney - In Performance at the White House (2010) HDTVRip- Русское название: Пол Маккартни - Концерт в Белом Доме
Оригинальное название: Paul McCartney - In Performance at the White House
Год выпуска: 2010
Выпущено: США, Cappy Productions Inc.
Жанр: Rock, Pop, Country, Soul
Описание фильма:
Cэру Полу Маккартни вручили награду за «личный вклад в дело превращения популярной песни в музыкальный инструмент культурного взаимодействия». К этому событию и был приурочен праздничный концерт 2 июня 2010 г. Помимо лауреата премии в концерте в Белом доме приняли участие и другие музыканты.
Режиссер: Линда Мендоза
Актеры: Пол Маккартни, Стиви Уандер, Элвис Костелло, Братья Джонас, Херби Хэнкок, Корин Бэйли Рэй, Дэвид Грол, Фэйт Хилл, Эммилу Харрис, Лан Лан, Джек Уайт, Джерри Сейнфелд
Продолжительность: 01:24:17
Перевод: Не требуется
Дата мировой премьеры: 28 июня 2010
Видеокодек: Xvid
Битрейт видео: 1931 Кбит/сек
Размер кадра: 720x400
Качество видео: HDTVRip
Аудиокодек: AC3 5.1
Битрейт аудио: 384 Кбит/с

Tреклист

01. Got To Get You Into My Life (by Sir Paul McCartney)
02. We Can Work It Out (by Stevie Wonder)
03. Drive My Car (by Jonas Brothers)
04. Mother Nature's Son (by Jack White)
05. The Long And Winding Road (by Faith Hill)
06. Blackbird (by Herbie Hancock and Corinne Bailey Rae)
07. Penny Lane (by Elvis Costello)
08. For No One (by Emmylou Harris)
09. Celebrations (by Lang Lang)
10. Band On The Run (by Dave Grohl)
11. Ebony And Ivory (by Stevie Wonder and Sir Paul McCartney)
12. Michelle (by Sir Paul McCartney)
13. Eleanor Rigby (by Sir Paul McCartney)
14. Let It Be (by Sir Paul McCartney)
15. Hey Jude (by Ensemble of artists, with President Obama)
16. Yesterday (by Sir Paul McCartney)

MediaInfo

Общее
Полное имя : E:\Pol.Makkartni.Koncert.v.Belom.Dome.2010.XviD.HDTVRip.avi
Формат : AVI
Формат/Информация : Audio Video Interleave
Размер файла : 1,37 Гбайт
Продолжительность : 1 ч. 24 м.
Общий поток : 2323 Кбит/сек
Программа кодирования : VirtualDubMod 1.5.4.1 (build 2178/release)
Библиотека кодирования : VirtualDubMod build 2178/release
Видео
Идентификатор : 0
Формат : MPEG-4 Visual
Профиль формата : Advanced [email protected]
Параметр BVOP формата : 1
Параметр QPel формата : Нет
Параметр GMC формата : Без точки перехода
Параметр матрицы формата : Выборочная
Идентификатор кодека : XVID
Идентификатор кодека/Подсказка : XviD
Продолжительность : 1 ч. 24 м.
Битрейт : 1931 Кбит/сек
Ширина : 720 пикселей
Высота : 400 пикселей
Соотношение сторон : 16:9
Частота кадров : 29,970 кадров/сек
Цветовое пространство : YUV
Субдискретизация насыщенности : 4:2:0
Битовая глубина : 8 бит
Тип развёртки : Прогрессивная
Метод сжатия : С потерями
Бит/(Пиксели*Кадры) : 0.224
Размер потока : 1,14 Гбайт (83%)
Библиотека кодирования : XviD 1.2.1 (UTC 2008-12-04)
Аудио
Идентификатор : 1
Формат : AC-3
Формат/Информация : Audio Coding 3
Расширение режима : CM (complete main)
Параметр Endianness формата : Big
Идентификатор кодека : 2000
Продолжительность : 1 ч. 24 м.
Вид битрейта : Постоянный
Битрейт : 384 Кбит/сек
Каналы : 6 каналов
Расположение каналов : Front: L C R, Side: L R, LFE
Частота : 48,0 КГц
Битовая глубина : 16 бит
Метод сжатия : С потерями
Размер потока : 232 Мбайт (17%)
Выравнивание : Разделение по промежуткам
Продолжительность промежутка : 96 мс. (2,88 видеокадра)
Время предзагрузки промежутка : 96 мс.

Скриншоты

         
         
Other forum [Profile] [PM]
Display posts from previous:    
Reply to topic

The time now is: Today 16:10

All times are GMT + 3 Hours



You cannot post new topics in this forum
You cannot reply to topics in this forum
You cannot edit your posts in this forum
You cannot delete your posts in this forum
You cannot vote in polls in this forum
You cannot attach files in this forum
You cannot download files in this forum