Today is a free download without charge Download

Остров капитанов / 2 серии (Алексей Соловьев) [1985, Кукольный мультфильм, DVDRip]

Reply to topic
 
Author
Message

Omen ®

Longevity: 7 years 11 months

Posts: 181087

Торрент-статистика

Post 23-Oct-2015 15:00

[Quote]

Остров капитанов / 2 серии
Страна: СССР
Жанр: Кукольный мультфильм
Продолжительность: 00:17:48+00:10:19
Год выпуска: 1985
Русские субтитры: нет
Режиссёр: Алексей Соловьев
Роли озвучивали: О.Табаков, Г.Бурков, Г.Бортников, Е.Киндинов, Н.Караченцов, И.Потоцкая, И.Акулова, Е.Васильева, Г.Иванова, И.Муравьева
Описание: О маленьких капитанах, которые победили страшных пиратов.Два маленьких отважных капитана попали на остров, где заправляют страшные и очень кровожадные пираты. Разве можно таких бояться? Можно! Только капитаны ничего не боятся и всегда побеждают!
Доп. информация: ТО«Экран»
Авторы сценария: С.Прокофьева
Оператор: Л.Кольвинковский
Мультипликаторы: О.Дегтярева,В.Кадухин
Художники:Е.Терлеев,К.Инешин
Качество: DVDRip
Формат: AVI
Видео: 704x528 (1.33:1), 25 fps, XviD MPEG-4 ~2099 kbps avg, 0.23 bit/pixel
Аудио: 48 kHz, AC3 Dolby Digital, 2/0 (L,R) ch, ~192.00 kbps avg
Субтитры: нет

Подробные технические данные

Format : AVIFormat/Info : Audio Video InterleaveFile size : 293 MiBDuration : 17mn 48sOverall bit rate : 2 302 KbpsWriting application : VirtualDubModRus 1.5.10.2 (build 2542/release)Copyright : Rutracker.orgComment : DVDRip by dvdss
VideoID : 0Format : MPEG-4 VisualFormat profile : Advanced [email protected] settings, BVOP : 2Format settings, QPel : NoFormat settings, GMC : No warppointsFormat settings, Matrix : CustomCodec ID : XVIDCodec ID/Hint : XviDDuration : 17mn 48sBit rate : 2 100 KbpsWidth : 704 pixelsHeight : 528 pixelsDisplay aspect ratio : 5:4Original display aspect ratio : 4:3Frame rate : 25.000 fpsColor space : YUVChroma subsampling : 4:2:0Bit depth : 8 bitsScan type : ProgressiveCompression mode : LossyBits/(Pixel*Frame) : 0.226Stream size : 267 MiB (91%)Writing library : XviD 65
AudioID : 1Format : AC-3Format/Info : Audio Coding 3Mode extension : CM (complete main)Format settings, Endianness : BigCodec ID : 2000Duration : 17mn 48sBit rate mode : ConstantBit rate : 192 KbpsChannel(s) : 2 channelsChannel positions : Front: L RSampling rate : 48.0 KHzBit depth : 16 bitsCompression mode : LossyStream size : 24.5 MiB (8%)Alignment : Aligned on interleavesInterleave, duration : 40 ms (1.00 video frame)Interleave, preload duration : 512 ms

Скриншоты

1 серия

2 серия

Other forum [Profile] [PM]
Display posts from previous:    
Reply to topic

The time now is: Today 04:36

All times are GMT + 3 Hours



You cannot post new topics in this forum
You cannot reply to topics in this forum
You cannot edit your posts in this forum
You cannot delete your posts in this forum
You cannot vote in polls in this forum
You cannot attach files in this forum
You cannot download files in this forum