Today is a free download without charge Download

Конец прекрасной эпохи (Станислав Говорухин) [2014, Россия, драма, комедия, WEB-DL 1080p] + Original Rus

Reply to topic
 
Author
Message

Omen ®

Longevity: 8 years 10 months

Posts: 181086

Торрент-статистика

Post 22-Oct-2015 12:00

[Quote]

Конец прекрасной эпохи
Страна: Россия
Студия: Мосфильм, Вертикаль
Жанр: драма, комедия
Год выпуска: 2014
Продолжительность: 01:34:01
Перевод: Не требуется
Cубтитры: нет
Оригинальная аудиодорожка: русский
Режиссер: Станислав Говорухин
В ролях: Иван Колесников, Сергей Гармаш, Федор Добронравов, Дмитрий Астрахан, Светлана Ходченкова, Юлиан Макаров, Лембит Ульфсак, Александра Нижегородова, Юлия Тройникова, Тыну Карк, Сергей Епишев
Описание: Молодому журналисту и писателю Андрею Лентулову, известному прямотой своих взглядов, свободой мысли и дерзостью суждений, предлагают переехать из Питера в Таллин, чтобы работать в местной газете. Там Андрей с головой уходит в полный противоречий роман с редактором Мариной, бесконечные случайные связи, но, что самое главное — яростное сопротивление системе. Какой была борьба бунтаря, любимца женщин и «самого аморального сотрудника» против жесточайшей цензуры, слежки и ханжества, и кто в ней победил?

Sample
Тип релиза: WEB-DL 1080p
Контейнер: MKV
Видео: MPEG4 AVC Video, H264, 16:9, 1918x1036, 25 fps, 4880 kbps
Аудио: Russian (AC3, 6 ch, 384 kbps, 16 bits, 48.0 KHz) - оригинал

MediaInfo

General
Unique ID : 202593506436080499047658101182081624379 (0x986A170E10A6D26781E967006D79693B)
Complete name : D:\Конец прекрасной эпохи 2014 WEB-DL 1080p.mkv
Format : Matroska
Format version : Version 4 / Version 2
File size : 3.53 GiB
Duration : 1h 34mn
Overall bit rate : 5 371 Kbps
Encoded date : UTC 2015-10-21 18:24:28
Writing application : mkvmerge v8.3.0 ('Over the Horizon') 64bit
Writing library : libebml v1.3.1 + libmatroska v1.4.2
DURATION : 01:34:01.504000000
NUMBER_OF_FRAMES : 176297
NUMBER_OF_BYTES : 270792192
_STATISTICS_WRITING_APP : mkvmerge v8.3.0 ('Over the Horizon') 64bit
_STATISTICS_WRITING_DATE_UTC : 2015-10-21 18:24:28
_STATISTICS_TAGS : BPS DURATION NUMBER_OF_FRAMES NUMBER_OF_BYTES
Video
ID : 1
Format : AVC
Format/Info : Advanced Video Codec
Format profile : [email protected]
Format settings, CABAC : Yes
Format settings, ReFrames : 4 frames
Codec ID : V_MPEG4/ISO/AVC
Duration : 1h 34mn
Bit rate : 4 880 Kbps
Width : 1 918 pixels
Height : 1 036 pixels
Display aspect ratio : 1.85:1
Frame rate mode : Constant
Frame rate : 25.000 fps
Color space : YUV
Chroma subsampling : 4:2:0
Bit depth : 8 bits
Scan type : Progressive
Bits/(Pixel*Frame) : 0.098
Stream size : 3.20 GiB (91%)
Language : English
Default : Yes
Forced : No
Color primaries : BT.709
Transfer characteristics : BT.709
Matrix coefficients : BT.709
Audio
ID : 2
Format : AC-3
Format/Info : Audio Coding 3
Mode extension : CM (complete main)
Format settings, Endianness : Big
Codec ID : A_AC3
Duration : 1h 34mn
Bit rate mode : Constant
Bit rate : 384 Kbps
Channel count : 6 channels
Channel positions : Front: L C R, Side: L R, LFE
Sampling rate : 48.0 KHz
Bit depth : 16 bits
Compression mode : Lossy
Stream size : 258 MiB (7%)
Language : Russian
Default : Yes
Forced : No

Скриншоты

Other forum [Profile] [PM]
Display posts from previous:    
Reply to topic

The time now is: Today 21:54

All times are GMT + 3 Hours



You cannot post new topics in this forum
You cannot reply to topics in this forum
You cannot edit your posts in this forum
You cannot delete your posts in this forum
You cannot vote in polls in this forum
You cannot attach files in this forum
You cannot download files in this forum