Today is a free download without charge Download

Титаник / Titanic (Джеймс Кэмерон) [1997 г., Драма, мелодрама, история, HDTVRip 720p]

Reply to topic
 
Author
Message

zeke ®

Gender:

Longevity: 9 years 6 months

Posts: 66

Торрент-статистика

Post 15-Feb-2011 20:59

[Quote]

Титаник / Titanic Год выпуска: 1997
Страна: США
Жанр: Драма, мелодрама, история
Продолжительность: 03:06:49
Режиссер: Джеймс Кэмерон
Продюссер: Джеймс Кэмерон, Памела Исли, Эл Гиддингс
Сценарий: Джеймс Кэмерон
Перевод: Профессиональный (полное дублирование)
Субтитры: Отсутствуют
Бюджет: $200 000 000
Премьера в мире: 1 ноября 1997
В ролях: Леонардо ДиКаприо, Кейт Уинслет, Билли Зейн, Кэти Бейтс, Фрэнсис Фишер, Глория Стюарт, Билл Пэкстон, Бернард Хилл, Дэвид Уорнер, Виктор Гарбер
Описание: Молодые влюбленные Джек и Роза находят друг друга в первом и последнем плавании «непотопляемого» Титаника. Они не могли знать, что шикарный лайнер столкнется с айсбергом в холодных водах Северной Атлантики, и их страстная любовь превратится в схватку со смертью...
Качество: HDTVRip 720p
Контейнер: MKV
Видео кодек: H.264
Аудио кодек: AC3
Видео: 1280x560 (16:9), 25.000 fps, 2 866 Kbps, H.264, Profile [email protected]
Аудио: AC3, Russian, 5.1 channels, 448kbps, 16 bits, 48.0 KHz
Сэмпл

MediaInfo

General
Unique ID : 205553276678449888402024344764590082880 (0x9AA41EFE965A281489FDC0F51C904B40)
Complete name : E:Титаник [HDTVRip 720p] (1997).mkv
Format : Matroska
File size : 4.33 GiB
Duration : 3h 6mn
Overall bit rate : 3 315 Kbps
Encoded date : UTC 2011-02-15 13:18:51
Writing application : mkvmerge v4.4.0 ('Die Wiederkehr') сборка от Oct 31 2010 21:52:48
Writing library : libebml v1.0.0 + libmatroska v1.0.0
Video
ID : 1
Format : AVC
Format/Info : Advanced Video Codec
Format profile : [email protected]
Format settings, CABAC : Yes
Format settings, ReFrames : 16 frames
Muxing mode : Header stripping
Codec ID : V_MPEG4/ISO/AVC
Duration : 3h 6mn
Bit rate : 2 866 Kbps
Width : 1 280 pixels
Height : 560 pixels
Display aspect ratio : 2.25:1
Frame rate : 25.000 fps
Color space : YUV
Chroma subsampling : 4:2:0
Bit depth : 8 bits
Scan type : Progressive
Bits/(Pixel*Frame) : 0.160
Stream size : 3.66 GiB (84%)
Title : Freeisland.HD
Writing library : x264 core 112 r1867 22bfd31
Encoding settings : cabac=1 / ref=16 / deblock=1:-1:-1 / analyse=0x3:0x133 / me=hex / subme=8 / psy=1 / psy_rd=1.00:0.15 / mixed_ref=1 / me_range=16 / chroma_me=1 / trellis=1 / 8x8dct=1 / cqm=0 / deadzone=21,11 / fast_pskip=1 / chroma_qp_offset=-3 / threads=2 / sliced_threads=0 / nr=0 / decimate=1 / interlaced=0 / constrained_intra=0 / bframes=8 / b_pyramid=2 / b_adapt=2 / b_bias=0 / direct=3 / weightb=1 / open_gop=0 / weightp=2 / keyint=250 / keyint_min=25 / scenecut=40 / intra_refresh=0 / rc_lookahead=50 / rc=2pass / mbtree=1 / bitrate=2866 / ratetol=1.0 / qcomp=0.60 / qpmin=0 / qpmax=51 / qpstep=4 / cplxblur=20.0 / qblur=0.5 / ip_ratio=1.40 / aq=1:1.00
Language : English
Audio
ID : 2
Format : AC-3
Format/Info : Audio Coding 3
Mode extension : CM (complete main)
Muxing mode : Header stripping
Codec ID : A_AC3
Duration : 3h 6mn
Bit rate mode : Constant
Bit rate : 448 Kbps
Channel(s) : 6 channels
Channel positions : Front: L C R, Side: L R, LFE
Sampling rate : 48.0 KHz
Bit depth : 16 bits
Compression mode : Lossy
Delay relative to video : 27ms
Stream size : 599 MiB (14%)
Title : AC3, Russian, 5.1 channels, 448kbps, 16 bits, 48.0 KHz
Language : Russian

Скриншоты

       

_________________
|LOST|
Other forum [Profile] [PM]
Display posts from previous:    
Reply to topic

The time now is: Today 11:29

All times are GMT + 3 Hours



You cannot post new topics in this forum
You cannot reply to topics in this forum
You cannot edit your posts in this forum
You cannot delete your posts in this forum
You cannot vote in polls in this forum
You cannot attach files in this forum
You cannot download files in this forum