Today is a free download without charge Download

Диалоги (Ирина Волкова) [2013, Россия, драма, HDTV 1080i] + Original Rus

Reply to topic
 
Author
Message

Omen ®

Longevity: 8 years 10 months

Posts: 181086

Торрент-статистика

Post 20-Oct-2015 12:00

[Quote]

Диалоги
Страна: Россия
Жанр: драма
Год выпуска: 2013
Продолжительность: 01:32:25
Перевод: Не требуется
Cубтитры: нет
Оригинальная аудиодорожка: русский
Режиссер: Ирина Волкова
В ролях: Евгений Стычкин, Ольга Аксёнова, Владимир Меньшов, Алексей Юдников, Агния Кузнецова, Роман Артемьев, Алексей Маслодудов, Сергей Овчинников, Ольга Сутулова, Евгений Цыганов
Описание: Пять попыток сказать самое важное, через немоту и страх быть непонятым. Пять шагов к себе, сквозь отражение в самых близких людях. Пять вдохов, чтобы идти дальше, преодолевая пустоту и страх смерти, в поисках и обретении любви. Разные герои проходят этот путь с одним лишь желанием быть услышанными и принятыми такими, какие они есть. Но возможно ли это?
Сэмпл: http://multi-up.com/1072114

Тип релиза: HDTV 1080i
Контейнер: TS
Видео: AVC/H.264, PAL, 1920x1080 (16:9), 10,1 Мбит/сек, 25.000 fps
Аудио: русский, AC3, 2 ch, 48,0 КГц, 192 Кбит/сек

MediaInfo

Общее
Идентификатор : 1 (0x1)
Полное имя : D:\Диалоги.ts
Формат : MPEG-TS
Размер файла : 7,02 Гбайт
Продолжительность : 1 ч. 32 м.
Режим общего битрейта : Переменный
Общий поток : 10,9 Мбит/сек
Максимальный общий битрейт : 35,5 Мбит/сек
Видео
Идентификатор : 4113 (0x1011)
Идентификатор меню : 1 (0x1)
Формат : AVC
Формат/Информация : Advanced Video Codec
Профиль формата : [email protected]
Параметр CABAC формата : Да
Параметр ReFrames формата : 3 кадра
Параметр GOP формата : M=4, N=32
Идентификатор кодека : 27
Продолжительность : 1 ч. 32 м.
Вид битрейта : Переменный
Битрейт : 10,1 Мбит/сек
Максимальный битрейт : 40,0 Мбит/сек
Ширина : 1920 пикселей
Высота : 1080 пикселей
Соотношение сторон : 16:9
Частота кадров : 25,000 кадров/сек
Стандарт вещания : Component
Цветовое пространство : YUV
Субдискретизация насыщенности : 4:2:0
Битовая глубина : 8 бит
Тип развёртки : Чересстрочная
Порядок развёртки : Верхнее поле первое
Бит/(Пиксели*Кадры) : 0.196
Размер потока : 6,55 Гбайт (93%)
Основные цвета : BT.709
Характеристики трансфера : BT.709
Коэффициенты матрицы : BT.709
colour_range : Limited
Аудио
Идентификатор : 4352 (0x1100)
Идентификатор меню : 1 (0x1)
Формат : AC-3
Формат/Информация : Audio Coding 3
Расширение режима : CM (complete main)
Параметр Endianness формата : Big
Идентификатор кодека : 129
Продолжительность : 1 ч. 32 м.
Вид битрейта : Постоянный
Битрейт : 192 Кбит/сек
Каналы : 2 канала
Расположение каналов : Front: L R
Частота : 48,0 КГц
Битовая глубина : 16 бит
Метод сжатия : С потерями
Задержка видео : 40 мс.
Размер потока : 127 Мбайт (2%)

Скриншот с названием фильма

Скриншоты

Other forum [Profile] [PM]
Display posts from previous:    
Reply to topic

The time now is: Today 19:23

All times are GMT + 3 Hours



You cannot post new topics in this forum
You cannot reply to topics in this forum
You cannot edit your posts in this forum
You cannot delete your posts in this forum
You cannot vote in polls in this forum
You cannot attach files in this forum
You cannot download files in this forum