Today is a free download without charge Download

Ёлки (Тимур Бекмамбетов) [2010 г., Комедия, BDRip 720p]

Reply to topic
 
Author
Message

zeke ®

Gender:

Longevity: 10 years

Posts: 66

Торрент-статистика

Post 15-Feb-2011 20:59

[Quote]

Ёлки Страна: Россия
Год выпуска: 2010
Жанр: Комедия
Продолжительность: 01:28:57
Режиссёр: Тимур Бекмамбетов
В ролях:
Сергей Светлаков, Вера Брежнева, Екатерина Вилкова, Артур Смольянинов, Сергей Гармаш, Иван Ургант, Виктор Вержбицкий
Описание:
События самой новогодней комедии ЁЛКИ происходят в 11 городах: Калининграде, Казани, Перми, Уфе, Бавлах, Екатеринбурге, Красноярске, Якутске, Новосибирске, Санкт-Петербурге и Москве. Герои фильма — таксист и поп-дива, бизнесмен и актер, сноубордист и лыжник, студент и пенсионерка, пожарник и директриса, вор и милиционер, гастарбайтер и Президент России. Все они оказываются в самый канун Нового года в очень непростой ситуации, выйти из которой им поможет только чудо… или Теория шести рукопожатий, согласно которой каждый человек на земле знает другого через шесть знакомых.
Качество: BDRip 720p
Контейнер: MKV
Видео кодек: H.264
Аудио кодек: AC3
Видео: 1280x544 (16:9), 23.976fps, 4 439 Kbps, H.264, Profile [email protected]
Аудио: AC3, Russian, 5.1 channels, 384kbps, 16 bits, 48.0 KHz
Сэмпл / Сэмпл

MediaInfo

General
Unique ID : 235103917131497459895454137066890653261 (0xB0DF5E0E3AD053748CC3106B7FD6EE4D)
Complete name : E:Елки [BDRip 720p] (2010).mkv
Format : Matroska
File size : 3.00 GiB
Duration : 1h 28mn
Overall bit rate : 4 823 Kbps
Encoded date : UTC 2011-01-23 07:55:07
Writing application : mkvmerge v4.4.0 ('Die Wiederkehr') сборка от Oct 31 2010 21:52:48
Writing library : libebml v1.0.0 + libmatroska v1.0.0
Video
ID : 1
Format : AVC
Format/Info : Advanced Video Codec
Format profile : [email protected]
Format settings, CABAC : Yes
Format settings, ReFrames : 3 frames
Format settings, GOP : M=2, N=44
Muxing mode : Header stripping
Codec ID : V_MPEG4/ISO/AVC
Duration : 1h 28mn
Bit rate mode : Variable
Bit rate : 4 439 Kbps
Maximum bit rate : 40.0 Mbps
Width : 1 280 pixels
Height : 544 pixels
Display aspect ratio : 2.35:1
Frame rate : 23.976 fps
Color space : YUV
Chroma subsampling : 4:2:0
Bit depth : 8 bits
Scan type : Progressive
Bits/(Pixel*Frame) : 0.266
Stream size : 2.70 GiB (90%)
Title : Freeisland.HD
Writing library : x264 core 112 r1867 22bfd31
Encoding settings : cabac=1 / ref=4 / deblock=1:-2:-2 / analyse=0x3:0x133 / me=hex / subme=8 / psy=1 / psy_rd=1.00:0.15 / mixed_ref=1 / me_range=16 / chroma_me=1 / trellis=1 / 8x8dct=1 / cqm=0 / deadzone=21,11 / fast_pskip=1 / chroma_qp_offset=-3 / threads=2 / sliced_threads=0 / slices=4 / nr=0 / decimate=1 / interlaced=0 / constrained_intra=0 / bframes=3 / b_pyramid=1 / b_adapt=2 / b_bias=0 / direct=1 / weightb=1 / open_gop=2 / weightp=0 / keyint=60 / keyint_min=6 / scenecut=40 / intra_refresh=0 / rc_lookahead=45 / rc=2pass / mbtree=1 / bitrate=4439 / ratetol=1.0 / qcomp=0.60 / qpmin=0 / qpmax=51 / qpstep=4 / cplxblur=20.0 / qblur=0.5 / vbv_maxrate=40000 / vbv_bufsize=30000 / nal_hrd=vbr / ip_ratio=1.40 / aq=1:1.00
Language : English
Color primaries : BT.709-5, BT.1361, IEC 61966-2-4, SMPTE RP177
Transfer characteristics : BT.709-5, BT.1361
Matrix coefficients : BT.709-5, BT.1361, IEC 61966-2-4 709, SMPTE RP177
Audio
ID : 2
Format : AC-3
Format/Info : Audio Coding 3
Mode extension : CM (complete main)
Muxing mode : Header stripping
Codec ID : A_AC3
Duration : 1h 28mn
Bit rate mode : Constant
Bit rate : 384 Kbps
Channel(s) : 6 channels
Channel positions : Front: L C R, Side: L R, LFE
Sampling rate : 48.0 KHz
Bit depth : 16 bits
Compression mode : Lossy
Stream size : 244 MiB (8%)
Title : AC3, Russian, 5.1 channels, 384kbps, 16 bits, 48.0 KHz
Language : Russian

Скриншоты

     

_________________
|LOST|


Last edited by zeke on 2011-09-03 13:17; edited 2 times in total
Other forum [Profile] [PM]

Dracula

Longevity: 7 years 1 month

Posts: 11387

Торрент-статистика

Post 15-Feb-2011 20:59 (after 12 seconds)

Топик был перенесен из форума Зарубежное кино (HD Video) в форум Наше кино (HD Video)

zeke
 
Display posts from previous:    
Reply to topic

The time now is: Today 09:19

All times are GMT + 3 Hours



You cannot post new topics in this forum
You cannot reply to topics in this forum
You cannot edit your posts in this forum
You cannot delete your posts in this forum
You cannot vote in polls in this forum
You cannot attach files in this forum
You cannot download files in this forum