Today is a free download without charge Download

Путешествие Ринглы / Ringlas celojums (Розалия Стиебра) [1973, Рисованный мультфильм, DVDRip] VO

Reply to topic
 
Author
Message

Omen ®

Longevity: 7 years 11 months

Posts: 181087

Торрент-статистика

Post 15-Oct-2015 00:00

[Quote]

Путешествие Ринглы / Ringlas celojums
Страна: CCCР
Жанр: Рисованный мультфильм
Продолжительность: 00:09:36
Год выпуска: 1973
Перевод: Одноголосый закадровый
Русские субтитры: нет
Режиссёр: Розалия Стиебра
Описание:Фильм по мотивам стихотворения латышского поэта Э.Адамсона "Цыганочка Рингла".Мультик будет интересен детям любого возраста, он очень добрый и с глубоким смыслом: мораль картины заключается в том, что где бы ты ни находился, нужно всегда помнить о своем доме. Сказочное путешествие Ринглы в тайном лесу полно опасностей, но девочка ничего не боится. Она очень хочет встретить медведя Ричуса, о котором ей так много рассказывала ее бабушка.
Доп. информация:
«Телефильм-Рига»
сценарист Янис Закье
художник-постановщик Юрий Исайкин
аниматоры Айна Озолиня и Айя Зиле
оператор Янис Рубенис
композитор Игорь Яковлев
Качество: DVDRip
Формат: AVI
Видео: 720x544 (1.32:1), 25 fps, XviD Final 1.0 (build 34) ~2382 kbps avg, 0.24 bit/pixel
Аудио: 48 kHz, MPEG Layer 3, 2 ch, ~128.00 kbps avg
Субтитры: нет

Подробные технические данные

Format : AVIFormat/Info : Audio Video InterleaveFile size : 173 MiBDuration : 9mn 36sOverall bit rate : 2 520 KbpsWriting application : VirtualDubMod 1.5.10.2 (build 2540/release)Writing library : VirtualDubMod build 2540/release
VideoID : 0Format : MPEG-4 VisualFormat profile : Advanced [email protected] settings, BVOP : 1Format settings, QPel : NoFormat settings, GMC : No warppointsFormat settings, Matrix : CustomCodec ID : XVIDCodec ID/Hint : XviDDuration : 9mn 36sBit rate : 2 383 KbpsWidth : 720 pixelsHeight : 544 pixelsDisplay aspect ratio : 4:3Frame rate : 25.000 fpsColor space : YUVChroma subsampling : 4:2:0Bit depth : 8 bitsScan type : ProgressiveCompression mode : LossyBits/(Pixel*Frame) : 0.243Stream size : 164 MiB (95%)Writing library : XviD 1.0.0 (UTC 2004-05-09)
AudioID : 1Format : MPEG AudioFormat version : Version 1Format profile : Layer 3Mode : Joint stereoMode extension : MS StereoCodec ID : 55Codec ID/Hint : MP3Duration : 9mn 36sBit rate mode : ConstantBit rate : 128 KbpsChannel(s) : 2 channelsSampling rate : 48.0 KHzCompression mode : LossyStream size : 8.80 MiB (5%)Alignment : Aligned on interleavesInterleave, duration : 40 ms (1.00 video frame)Interleave, preload duration : 504 msLanguage : Latvian, Lettish

Скриншоты

Other forum [Profile] [PM]
Similar theme
Forum Topic Author Torrent Replies Last Post
./templates/default/images/folder_dl.gif Обучающая и научно-популярная литература Лотман Юрий Михайлович - "Письма русского путешественника" Карамзина и их место в развитии русской культуры [И. В. Калинин (ЛИ), (ЛИ), 1987 г., 192 kbps, MP3] Omen
1 | 0

0 | 763

1

2015-11-20 15:00
Omen Latest
./templates/default/images/folder_dl.gif Любительское видео Электричка [2017 г., Teens, Blowjob, Amateur, CamRip] (Путешественники) Anonymous
0 | 1

0 | 4158

27

2018-04-01 23:02
Anonymous Latest
./templates/default/images/folder_dl.gif Фильмы 2011-2020 Удивительное путешествие доктора Дулиттла / Dolittle (Стивен Гейган) [2020 г., приключения, комедия, семейный, фэнтези, BDRip]MVO | HDRezka Studio kilmister777
1 | 0

0 | 615

0

2020-03-31 11:14
kilmister777 Latest
Display posts from previous:    
Reply to topic

The time now is: Today 11:07

All times are GMT + 3 Hours



You cannot post new topics in this forum
You cannot reply to topics in this forum
You cannot edit your posts in this forum
You cannot delete your posts in this forum
You cannot vote in polls in this forum
You cannot attach files in this forum
You cannot download files in this forum