Today is a free download without charge Download

Еще одна из рода Болейн / The Other Boleyn Girl (Джастин Чадвик) [2008 г., драма, мелодрама, биография, история, BDRip 1080p]

Reply to topic
 
Author
Message

Delia ®

Gender:

Longevity: 9 years 1 month

Posts: 1821

Торрент-статистика

Post 15-Feb-2011 17:34

[Quote]

Еще одна из рода БолейнThe Other Boleyn Girl Год выпуска: 2008
Страна: США, Великобритания
Жанр: драма, мелодрама, биография, история
Продолжительность: 1 ч. 55 м.
Перевод: Профессиональный (полное дублирование)+ оригинал
Режиссер: Джастин Чадвик
Продюссер: Марк Купер, Элисон Оуэн, Джейн Робертсон
Сценарий: Питер Морган, Филиппа Грегори
Бюджет: $35 000 000
Премьера в мире: 15 февраля 2008
6.70 (28 275)

В ролях: Натали Портман, Скарлетт Йоханссон, Эрик Бана, Джим Стерджесс, Марк Райлэнс, Кристин Скотт Томас, Дэвид Моррисси, Бенедикт Камбербэтч, Оливер Коулмэн, Ана Торрент
Описание: Англия. Время королей, придворных, фрейлин. Простая и неспешная деревенская жизнь семьи Болейн заканчивается, когда отец семейства решает улучшить своё положение при дворе, отдав одну из своих дочерей Анну в любовницы королю Англии Генриху VIII , жена которого не в состоянии родить ему наследника. Но королю больше приглянулась вторая дочь — замужняя Мария , которую он назначает фрейлиной при королеве. Мария вынуждена подчиниться воле корыстного отца и слабовольного мужа
Качество: BDRip 1080p
Формат: MKV
Видео кодек: H.26x
Аудио кодек: AC3
Видео: Matroska: 4,36 Гбайт, 1 ч. 55 м.English, 4499 Кбит/сек, 1920*1040 (16:9), в 23,976 кадр/сек, AVC
Аудио: Russian, 448 Кбит/сек, 48,0 КГц, 16 бит, 6 канала(ов), AC-3448 Кбит/сек, 48,0 КГц, 16 бит, 6 канала(ов), AC-3
Аудио:English,448 Кбит/сек, 48,0 КГц, 16 бит, 6 канала(ов), AC-3448 Кбит/сек, 48,0 КГц, 16 бит, 6 канала(ов), AC-3

MediаInfo:

Полное имя : E:\торрент\The Other Boleyn Girl (2008)BDRip 1080p .mkv
Формат : Matroska
Размер файла : 4,36 Гбайт
Продолжительность : 1 ч. 55 м.
Общий поток : 5397 Кбит/сек
Дата кодирования : UTC 2011-02-15 11:34:42
Программа кодирования : mkvmerge v4.5.0 ('Speed of Light') built on Feb 1 2011 02:10:32
Библиотека кодирования : libebml v1.2.0 + libmatroska v1.1.0
Видео
Идентификатор : 1
Формат : AVC
Формат/Информация : Advanced Video Codec
Профиль формата : [email protected]
Параметр CABAC формата : Да
Параметр ReFrames формата : 12 кадры
Идентификатор кодека : V_MPEG4/ISO/AVC
Продолжительность : 1 ч. 55 м.
Битрейт : 4499 Кбит/сек
Ширина : 1920 пикс.
Высота : 1040 пикс.
Соотношение сторон : 16:9
Частота кадров : 23,976 кадр/сек
Цветовое пространство : YUV
Подвыборка цветности : 4:2:0
Битовая глубина : 8 бит
Тип развёртки : Прогрессивная
Бит/(Пиксели*Кадры) : 0.094
Размер потока : 3,55 Гбайт (81%)
Библиотека кодирования : x264 core 114 r1900 60ef1f8
Настройки программы : cabac=1 / ref=12 / deblock=1:-3:-3 / analyse=0x3:0x133 / me=umh / subme=7 / psy=1 / psy_rd=1.00:0.00 / mixed_ref=1 / me_range=32 / chroma_me=1 / trellis=2 / 8x8dct=1 / cqm=0 / deadzone=21,11 / fast_pskip=1 / chroma_qp_offset=-2 / threads=6 / sliced_threads=0 / nr=0 / decimate=1 / interlaced=0 / constrained_intra=0 / bframes=5 / b_pyramid=2 / b_adapt=1 / b_bias=0 / direct=1 / weightb=1 / open_gop=0 / weightp=2 / keyint=250 / keyint_min=23 / scenecut=40 / intra_refresh=0 / rc_lookahead=40 / rc=2pass / mbtree=1 / bitrate=4499 / ratetol=1.0 / qcomp=0.80 / qpmin=5 / qpmax=51 / qpstep=4 / cplxblur=20.0 / qblur=0.5 / ip_ratio=1.40 / aq=1:1.00
Язык : English
Аудио #1
Идентификатор : 2
Формат : AC-3
Формат/Информация : Audio Coding 3
Расширение режима : CM (complete main)
Идентификатор кодека : A_AC3
Продолжительность : 1 ч. 55 м.
Вид битрейта : Постоянный
Битрейт : 448 Кбит/сек
Канал(ы) : 6 канала(ов)
Расположение каналов : Front: L C R, Side: L R, LFE
Частота : 48,0 КГц
Битовая глубина : 16 бит
Метод сжатия : С потерями
Размер потока : 370 Мбайт (8%)
Язык : Russian
Аудио #2
Идентификатор : 3
Формат : AC-3
Формат/Информация : Audio Coding 3
Расширение режима : CM (complete main)
Идентификатор кодека : A_AC3
Продолжительность : 1 ч. 55 м.
Вид битрейта : Постоянный
Битрейт : 448 Кбит/сек
Канал(ы) : 6 канала(ов)
Расположение каналов : Front: L C R, Side: L R, LFE
Частота : 48,0 КГц
Битовая глубина : 16 бит
Метод сжатия : С потерями
Размер потока : 370 Мбайт (8%)
Язык : English
Релиз от: -

_________________
Человек – это канат, натянутый между животным и сверхчеловеком, – канат над пропастью.
В человеке ценно то, что он мост, а не цель. Фридрих Ницше


Last edited by Delia on 2011-08-25 21:44; edited 3 times in total
Other forum [Profile] [PM]
Display posts from previous:    
Reply to topic

The time now is: Today 17:39

All times are GMT + 3 Hours



You cannot post new topics in this forum
You cannot reply to topics in this forum
You cannot edit your posts in this forum
You cannot delete your posts in this forum
You cannot vote in polls in this forum
You cannot attach files in this forum
You cannot download files in this forum