Today is a free download without charge Download

Что такое колхоз? / Kas tas ir kolhozs? (Розалия Стиебра) [1981, Рисованный мультфильм, DVDRip] VO

Reply to topic
 
Author
Message

Omen ®

Longevity: 7 years 11 months

Posts: 181087

Торрент-статистика

Post 14-Oct-2015 00:19

[Quote]

Что такое колхоз? / Kas tas ir kolhozs?
Страна: СССР
Жанр: Рисованный мультфильм
Продолжительность: 00:08:56
Год выпуска: 1981
Перевод: любительский (одноголосый закадровый)
Русские субтитры: нет
Режиссёр: Розалия Стиебра
Описание: Мультфильм Что такое − колхоз? от режиссера Розалины Стиебры был призван популяризировать это явление среди жителей глубинки огромного Советского Союза, ведь все мы знаем, что исторический процесс коллективизации проходил болезненно, и многие отказывались отдавать свое имущество в коллективное пользование, понимая, что это не так уж и выгодно, как об этом рассказывает власть. Не исключено, что картина была сделана на заказ правительства.
Доп. информация: «Телефильм-Рига»
Качество: DVDRip
Формат: AVI
Видео: 720x560 (1.29:1), 25 fps, XviD build 50 ~2367 kbps avg, 0.23 bit/pixel
Аудио: 48 kHz, MPEG Layer 3, 2 ch, ~128.00 kbps avg
Субтитры: нет

Подробные технические данные

Format : AVIFormat/Info : Audio Video InterleaveFile size : 160 MiBDuration : 8mn 56sOverall bit rate : 2 506 KbpsWriting application : VirtualDubMod 1.5.10.2 (build 2540/release)Writing library : VirtualDubMod build 2540/release
VideoID : 0Format : MPEG-4 VisualFormat profile : Advanced [email protected] settings, BVOP : 1Format settings, QPel : NoFormat settings, GMC : No warppointsFormat settings, Matrix : CustomCodec ID : XVIDCodec ID/Hint : XviDDuration : 8mn 56sBit rate : 2 368 KbpsWidth : 720 pixelsHeight : 560 pixelsDisplay aspect ratio : 1.286Frame rate : 25.000 fpsColor space : YUVChroma subsampling : 4:2:0Bit depth : 8 bitsScan type : ProgressiveCompression mode : LossyBits/(Pixel*Frame) : 0.235Stream size : 151 MiB (94%)Writing library : XviD 1.2.1 (UTC 2008-12-04)
AudioID : 1Format : MPEG AudioFormat version : Version 1Format profile : Layer 3Mode : Joint stereoMode extension : MS StereoCodec ID : 55Codec ID/Hint : MP3Duration : 8mn 56sBit rate mode : ConstantBit rate : 128 KbpsChannel(s) : 2 channelsSampling rate : 48.0 KHzCompression mode : LossyStream size : 8.18 MiB (5%)Alignment : Aligned on interleavesInterleave, duration : 40 ms (1.00 video frame)Interleave, preload duration : 504 msLanguage : Latvian, Lettish

Скриншоты

Other forum [Profile] [PM]
Display posts from previous:    
Reply to topic

The time now is: Today 10:09

All times are GMT + 3 Hours



You cannot post new topics in this forum
You cannot reply to topics in this forum
You cannot edit your posts in this forum
You cannot delete your posts in this forum
You cannot vote in polls in this forum
You cannot attach files in this forum
You cannot download files in this forum