Today is a free download without charge Download

У меня в кармане / Kabata (Розалия Стиебра) [1983, Рисованный мультфильм, DVDRip] VO

Reply to topic
 
Author
Message

Omen ®

Longevity: 7 years 11 months

Posts: 181087

Торрент-статистика

Post 13-Oct-2015 00:06

[Quote]

У меня в кармане / Kabata
Страна: СССР
Жанр: Рисованный мультфильм
Продолжительность: 00:08:57
Год выпуска: 1983
Перевод: Одноголосый закадровый
Русские субтитры: нет
Режиссёр: Розалия Стиебра
Описание: По мотивам произведений Ояра Вациетиса. Главный действующий герой — поэт Ояр Вациетс, который достаёт из кармана пальто пригоршню сказочных персонажей. Волей его фантазии они начинают жить собственной жизнью, проходящей перед нами калейдоскопом красочных событий.
Доп. информация:
«Телефильм-Рига»
Качество: DVDRip
Формат: AVI
Видео: 720x544 (1.32:1), 25 fps, XviD MPEG-4 ~2000 kbps avg, 0.20 bit/pixel
Аудио: 44.100 kHz, MPEG Layer 3, 2 ch, ~128.00 kbps avg
Субтитры: нет

Подробные технические данные

Format : AVIFormat/Info : Audio Video InterleaveFile size : 137 MiBDuration : 8mn 57sOverall bit rate : 2 138 KbpsWriting application : VirtualDubMod 1.5.10.2 (build 2540/release)Writing library : VirtualDubMod build 2540/release
VideoID : 0Format : MPEG-4 VisualFormat profile : [email protected] settings, BVOP : NoFormat settings, QPel : NoFormat settings, GMC : No warppointsFormat settings, Matrix : Default (H.263)Codec ID : XVIDCodec ID/Hint : XviDDuration : 8mn 57sBit rate : 2 000 KbpsWidth : 720 pixelsHeight : 544 pixelsDisplay aspect ratio : 4:3Frame rate : 25.000 fpsColor space : YUVChroma subsampling : 4:2:0Bit depth : 8 bitsScan type : ProgressiveCompression mode : LossyBits/(Pixel*Frame) : 0.204Stream size : 128 MiB (94%)Writing library : Lavc53.33.0
AudioID : 1Format : MPEG AudioFormat version : Version 1Format profile : Layer 3Mode : Joint stereoMode extension : MS StereoCodec ID : 55Codec ID/Hint : MP3Duration : 8mn 57sBit rate mode : ConstantBit rate : 128 KbpsChannel(s) : 2 channelsSampling rate : 44.1 KHzCompression mode : LossyStream size : 8.20 MiB (6%)Alignment : Split accross interleavesInterleave, duration : 40 ms (1.00 video frame)Interleave, preload duration : 500 ms

Скриншоты

Other forum [Profile] [PM]
Display posts from previous:    
Reply to topic

The time now is: Today 07:00

All times are GMT + 3 Hours



You cannot post new topics in this forum
You cannot reply to topics in this forum
You cannot edit your posts in this forum
You cannot delete your posts in this forum
You cannot vote in polls in this forum
You cannot attach files in this forum
You cannot download files in this forum