Today is a free download without charge Download

Дневник Бриджет Джонс / Bridget Jones's Diary (Шэрон Магуайр) [2001 г., драма, мелодрама, комедия,BDRip 720р]

Reply to topic
 
Author
Message

Delia ®

Gender:

Longevity: 9 years 7 months

Posts: 1821

Торрент-статистика

Post 14-Feb-2011 10:14

[Quote]

Дневник Бриджет ДжонсBridget Jones's Diary Год выпуска: 2001
Страна: Франция, Великобритания, Ирландия
Жанр: драма, мелодрама, комедия
Продолжительность: 1 ч. 36 м.
Перевод: Профессиональный (многоголосый, закадровый)
Режиссер: Шэрон Магуайр
Продюссер: Тим Беван, Джонатан Кавендиш, Лиза Чейсин
Сценарий: Хелен Филдинг, Эндрю Дэвис, Ричард Кёртис
Бюджет: $25 000 000
Премьера в мире: 4 апреля 2001
R - Лицам до 17 лет обязательно присутствие взрослого
6.80 (60 807)

В ролях: Рене Зеллвегер, Хью Грант, Колин Фёрт, Джемма Джонс, Джим Броудбент, Сэлли Филлипс, Ширли Хендерсон, Джеймс Кэллис, Чармиан Мей, Эмбет Дэвидц
Описание: Героиня этого фильма, Бриджет Джонс, решила, наконец, взять себя в руки и начать новую жизнь! И давно пора! Ей уже за тридцать, но она безвольно потакает своим вредным привычкам и не решается избавиться от лишних килограммов. Но, что самое главное, Бриджет — совсем одна.Родители пытаются сосватать ее за сына соседей, скромника Марка, а сама Бриджет без ума от своего неотразимого начальника Дэниэла! С первого дня новой жизни мисс Джонс решает вести дневник, в который она будет записывать свои будущие достижения и победы. Но оказалось, что осуществить мечты и найти истинную любовь гораздо сложней, чем это представлялось нашей прелестной героине...
Качество: BDRip( Blu-Ray Remux (1080p)
Формат: MKV
Видео кодек: H.26x
Аудио кодек: AC3
Видео: Matroska: 4,38 Гбайт, 1 ч. 36 м.English, 5304 Кбит/сек, 1280*544 (2,35:1), в 24,000 кадр/сек, AVC
Аудио#: Russian, 448 Кбит/сек, 48,0 КГц, 16 бит, 6 канала(ов), AC-3
Аудио#:Russian, 384 Кбит/сек, 48,0 КГц, 16 бит, 6 канала(ов), AC-3
Аудио#:English, 384 Кбит/сек, 48,0 КГц, 16 бит, 6 канала(ов), AC-3
Субтитры:Russian, VobSub:English, VobSub

MediаInfo

Полное имя : E:\торрент\Bridget Jones's Diary ( 2001)BDRip 720р.mkv
Формат : Matroska
Размер файла : 4,38 Гбайт
Продолжительность : 1 ч. 36 м.
Общий поток : 6529 Кбит/сек
Дата кодирования : UTC 2011-02-14 04:54:31
Программа кодирования : mkvmerge v4.5.0 ('Speed of Light') built on Feb 1 2011 02:10:32
Библиотека кодирования : libebml v1.2.0 + libmatroska v1.1.0
Видео
Идентификатор : 1
Формат : AVC
Формат/Информация : Advanced Video Codec
Профиль формата : [email protected]
Параметр CABAC формата : Да
Параметр ReFrames формата : 12 кадры
Идентификатор кодека : V_MPEG4/ISO/AVC
Продолжительность : 1 ч. 36 м.
Битрейт : 5304 Кбит/сек
Ширина : 1280 пикс.
Высота : 544 пикс.
Соотношение сторон : 2,35:1
Частота кадров : 24,000 кадр/сек
Цветовое пространство : YUV
Подвыборка цветности : 4:2:0
Битовая глубина : 8 бит
Тип развёртки : Прогрессивная
Бит/(Пиксели*Кадры) : 0.317
Размер потока : 3,48 Гбайт (79%)
Библиотека кодирования : x264 core 114 r1900 60ef1f8
Настройки программы : cabac=1 / ref=12 / deblock=1:-3:-3 / analyse=0x3:0x133 / me=umh / subme=7 / psy=1 / psy_rd=1.00:0.00 / mixed_ref=1 / me_range=32 / chroma_me=1 / trellis=2 / 8x8dct=1 / cqm=0 / deadzone=21,11 / fast_pskip=1 / chroma_qp_offset=-2 / threads=6 / sliced_threads=0 / nr=0 / decimate=1 / interlaced=0 / constrained_intra=0 / bframes=7 / b_pyramid=2 / b_adapt=1 / b_bias=0 / direct=1 / weightb=1 / open_gop=0 / weightp=2 / keyint=250 / keyint_min=24 / scenecut=40 / intra_refresh=0 / rc_lookahead=40 / rc=2pass / mbtree=1 / bitrate=5304 / ratetol=1.0 / qcomp=0.80 / qpmin=5 / qpmax=51 / qpstep=4 / cplxblur=20.0 / qblur=0.5 / ip_ratio=1.40 / aq=1:1.00
Язык : English
Аудио #1
Идентификатор : 2
Формат : AC-3
Формат/Информация : Audio Coding 3
Расширение режима : CM (complete main)
Идентификатор кодека : A_AC3
Продолжительность : 1 ч. 36 м.
Вид битрейта : Постоянный
Битрейт : 448 Кбит/сек
Канал(ы) : 6 канала(ов)
Расположение каналов : Front: L C R, Side: L R, LFE
Частота : 48,0 КГц
Битовая глубина : 16 бит
Метод сжатия : С потерями
Размер потока : 308 Мбайт (7%)
Язык : Russian
Аудио #2
Идентификатор : 3
Формат : AC-3
Формат/Информация : Audio Coding 3
Расширение режима : CM (complete main)
Идентификатор кодека : A_AC3
Продолжительность : 1 ч. 36 м.
Вид битрейта : Постоянный
Битрейт : 384 Кбит/сек
Канал(ы) : 6 канала(ов)
Расположение каналов : Front: L C R, Side: L R, LFE
Частота : 48,0 КГц
Битовая глубина : 16 бит
Метод сжатия : С потерями
Размер потока : 264 Мбайт (6%)
Язык : Russian
Аудио #3
Идентификатор : 4
Формат : AC-3
Формат/Информация : Audio Coding 3
Расширение режима : CM (complete main)
Идентификатор кодека : A_AC3
Продолжительность : 1 ч. 36 м.
Вид битрейта : Постоянный
Битрейт : 384 Кбит/сек
Канал(ы) : 6 канала(ов)
Расположение каналов : Front: L C R, Side: L R, LFE
Частота : 48,0 КГц
Битовая глубина : 16 бит
Метод сжатия : С потерями
Размер потока : 264 Мбайт (6%)
Язык : English
Текст #1
Идентификатор : 5
Формат : VobSub
Режим смешивания : zlib
Идентификатор кодека : S_VOBSUB
Идентификатор кодека/Информация : The same subtitle format used on DVDs
Язык : Russian
Текст #2
Идентификатор : 6
Формат : VobSub
Режим смешивания : zlib
Идентификатор кодека : S_VOBSUB
Идентификатор кодека/Информация : The same subtitle format used on DVDs
Язык : English

Скриншоты

[thumbnails]http://i15.fastpic.ru/big/2011/0214/1f/635ccad30d59...8568b903c71f.jpg [/thumbnails]     

_________________
Человек – это канат, натянутый между животным и сверхчеловеком, – канат над пропастью.
В человеке ценно то, что он мост, а не цель. Фридрих Ницше


Last edited by Delia on 2011-08-25 21:41; edited 4 times in total
Other forum [Profile] [PM]
Similar theme
Forum Topic Author Torrent Replies Last Post
./templates/default/images/folder_dl.gif Психология, Тренинг, Саморазвитие Андрей Парабеллум, Николай Мрочковский | Быстрые результаты. 10-дневная программа повышения личной эффективности (2012) [FB2, PDF, DOCX] moralis
1 | 0

0 | 875

1

2016-02-04 13:13
moralis Latest
Display posts from previous:    
Reply to topic

The time now is: Today 10:54

All times are GMT + 3 Hours



You cannot post new topics in this forum
You cannot reply to topics in this forum
You cannot edit your posts in this forum
You cannot delete your posts in this forum
You cannot vote in polls in this forum
You cannot attach files in this forum
You cannot download files in this forum