Today is a free download without charge Download

Клетка (Элла Архангельская) [2015, Россия, драма, триллер, WEB-DL 1080p] + Original Rus

Reply to topic
 
Author
Message

Omen ®

Longevity: 8 years 10 months

Posts: 181086

Торрент-статистика

Post 08-Oct-2015 00:38

[Quote]

Клетка
Страна: Россия
Студия: Мосфильм
Жанр: драма, триллер
Год выпуска: 2015
Продолжительность: 01:42:26
Перевод: Не требуется
Cубтитры: нет
Оригинальная аудиодорожка: русский
Режиссер: Элла Архангельская
В ролях: Даниил Спиваковский, Елена Радевич, Михаил Горевой, Дмитрий Нагиев, Евгений Кулаков, Ирина Рахманова, Ёла Санько, Дмитрий Проданов, Александр Кабанов, Анвар Либабов
Описание: Ростовщик женится на бедной юной девушке, чтобы потешить свое тщеславие и начать новую жизнь. Кроткая и Неизвестный — их союз начисто лишен любви и счастья. Казалось бы, обычная бытовая история, но между супругами вспыхивает настоящая психологическая война, которая разрушает обоих и приводит к страшным последствиям. Неизвестный в буквальном смысле заточает жену в клетку, но в итоге сам оказывается её пленником.
Кинопоиск
Sample
Тип релиза: WEB-DL 1080p
Контейнер: MKV
Видео: MPEG4 AVC Video, H264, 16:9, 1920x1080, 25.000 fps, 4965 kbps
Аудио: Russian (AC3, 6 ch, 384 kbps, 16 bits, 48.0 KHz) - оригинал

MediaInfo

General
Unique ID : 170143861328989033495345654294751967913 (0x8000840773DA8BCCB5DC56C1C7C37AA9)
Complete name : L:\Клетка 2015 WEB-DL 1080p.mkv
Format : Matroska
Format version : Version 4 / Version 2
File size : 3.91 GiB
Duration : 1h 42mn
Overall bit rate : 5 458 Kbps
Encoded date : UTC 2015-10-07 18:27:41
Writing application : mkvmerge v6.9.1 ('Blue Panther') 64bit built on Apr 18 2014 18:23:38
Writing library : libebml v1.3.0 + libmatroska v1.4.1
Video
ID : 1
Format : AVC
Format/Info : Advanced Video Codec
Format profile : [email protected]
Format settings, CABAC : Yes
Format settings, ReFrames : 4 frames
Codec ID : V_MPEG4/ISO/AVC
Duration : 1h 42mn
Bit rate : 4 965 Kbps
Width : 1 920 pixels
Height : 1 080 pixels
Display aspect ratio : 16:9
Frame rate mode : Constant
Frame rate : 25.000 fps
Color space : YUV
Chroma subsampling : 4:2:0
Bit depth : 8 bits
Scan type : Progressive
Bits/(Pixel*Frame) : 0.096
Stream size : 3.55 GiB (91%)
Language : English
Default : Yes
Forced : No
Color primaries : BT.709
Transfer characteristics : BT.709
Matrix coefficients : BT.709
Audio
ID : 2
Format : AC-3
Format/Info : Audio Coding 3
Mode extension : CM (complete main)
Format settings, Endianness : Big
Codec ID : A_AC3
Duration : 1h 42mn
Bit rate mode : Constant
Bit rate : 384 Kbps
Channel count : 6 channels
Channel positions : Front: L C R, Side: L R, LFE
Sampling rate : 48.0 KHz
Bit depth : 16 bits
Compression mode : Lossy
Stream size : 281 MiB (7%)
Language : Russian
Default : Yes
Forced : No

Скриншоты

Other forum [Profile] [PM]
Display posts from previous:    
Reply to topic

The time now is: Today 12:58

All times are GMT + 3 Hours



You cannot post new topics in this forum
You cannot reply to topics in this forum
You cannot edit your posts in this forum
You cannot delete your posts in this forum
You cannot vote in polls in this forum
You cannot attach files in this forum
You cannot download files in this forum