Сегодня идет свободное скачивание без начисления Download

Двойная жизнь Чарли Сан-Клауда / Charlie St. Cloud (Бёрр Стирс) [2010 г., фэнтези, драма, мелодрама, BDRip 1080p]

Ответить на тему
 
Автор
Сообщение

Delia ®

Пол:

Стаж: 8 лет 11 месяцев

Сообщений: 1822

Торрент-статистика

Пост 14-Фев-2011 09:34

[Цитировать]

Двойная жизнь Чарли Сан-КлаудаCharlie St. Cloud Год выпуска: 2010
Страна: США, Канада
Жанр: фэнтези, драма, мелодрама
Продолжительность: 99 мин.
Перевод: Профессиональный (полное дублирование)
Режиссер: Бёрр Стирс
Продюссер: Майкл Фоттрел, Джаред ЛеБофф, Марк Э. Платт
Сценарий: Крэйг Пирс, Льюис Колик
Бюджет: $44 000 000
Премьера в мире: 30 июля 2010
PG-13 - Детям до 13 лет просмотр не желателен
5.50 (4 910)

В ролях: Зак Эфрон, Чарли Тахэн, Аманда Крю, Август Прю, Донал Лог, Ким Бейсингер, Рэй Лиотта, Дэйв Франко, Мэтт Уорд, Майлз Чалмерс
Описание: Чарли Сан-Клауд живет в тихом городке. Он преуспевает в спорте и готовится к учебе в престижном университете. Но случается трагедия — в аварии погибает его младший брат Сэм — и жизнь Чарли меняется. Он винит себя в случившемся. Прошлое не дает ему покоя. Спустя 5 лет после трагедии в город возвращается бывшая одноклассница Чарли — Тесс. Она готовится в одиночку совершить кругосветное путешествие и каждый день выходит в море. Чарли влюбляется в Тесс, он полон сомнений. Что важнее — прошлое, брат, которым он так дорожит, или новое чувство, способное излечить его душу?
Качество:BDRip
Формат: MKV
Видео кодек: H.26x
Аудио кодек: AC3
Видео: Matroska: 4,35 Гбайт, 1 ч. 39 м.English, 5216 Кбит/сек, 1920*800 (2,40:1), в 23,976 кадр/сек, AVC
Аудио#: Russian, 640 Кбит/сек, 48,0 КГц, 16 бит, 6 канала(ов), AC-3
Аудио#: English, 448 Кбит/сек, 48,0 КГц, 16 бит, 6 канала(ов), AC-3
Субтитры:Russian, VobSub( Субтитры актеров и поясняющие действие фильма)English, VobSub

MediаInfo:

Полное имя : E:\торрент\Charlie St. Cloud BDRip 1080p-muxed.mkv
Формат : Matroska
Размер файла : 4,35 Гбайт
Продолжительность : 1 ч. 39 м.
Общий поток : 6272 Кбит/сек
Дата кодирования : UTC 2011-02-13 08:14:04
Программа кодирования : mkvmerge v4.5.0 ('Speed of Light') built on Feb 1 2011 02:10:32
Библиотека кодирования : libebml v1.2.0 + libmatroska v1.1.0
Видео
Идентификатор : 1
Формат : AVC
Формат/Информация : Advanced Video Codec
Профиль формата : [email protected]
Параметр CABAC формата : Да
Параметр ReFrames формата : 14 кадры
Идентификатор кодека : V_MPEG4/ISO/AVC
Продолжительность : 1 ч. 39 м.
Битрейт : 5216 Кбит/сек
Ширина : 1920 пикс.
Высота : 800 пикс.
Соотношение сторон : 2,40:1
Частота кадров : 23,976 кадр/сек
Цветовое пространство : YUV
Подвыборка цветности : 4:2:0
Битовая глубина : 8 бит
Тип развёртки : Прогрессивная
Бит/(Пиксели*Кадры) : 0.142
Размер потока : 3,51 Гбайт (81%)
Библиотека кодирования : x264 core 114 r1900 60ef1f8
Настройки программы : cabac=1 / ref=14 / deblock=1:-2:-2 / analyse=0x3:0x133 / me=umh / subme=7 / psy=1 / psy_rd=1.00:0.00 / mixed_ref=1 / me_range=32 / chroma_me=1 / trellis=2 / 8x8dct=1 / cqm=0 / deadzone=21,11 / fast_pskip=1 / chroma_qp_offset=-2 / threads=6 / sliced_threads=0 / nr=0 / decimate=1 / interlaced=0 / constrained_intra=0 / bframes=5 / b_pyramid=2 / b_adapt=1 / b_bias=0 / direct=1 / weightb=1 / open_gop=0 / weightp=2 / keyint=250 / keyint_min=23 / scenecut=40 / intra_refresh=0 / rc_lookahead=40 / rc=2pass / mbtree=1 / bitrate=5216 / ratetol=1.0 / qcomp=0.80 / qpmin=5 / qpmax=51 / qpstep=4 / cplxblur=20.0 / qblur=0.5 / ip_ratio=1.40 / aq=1:1.00
Язык : English
Аудио #1
Идентификатор : 2
Формат : AC-3
Формат/Информация : Audio Coding 3
Расширение режима : CM (complete main)
Идентификатор кодека : A_AC3
Продолжительность : 1 ч. 39 м.
Вид битрейта : Постоянный
Битрейт : 640 Кбит/сек
Канал(ы) : 6 канала(ов)
Расположение каналов : Front: L C R, Side: L R, LFE
Частота : 48,0 КГц
Битовая глубина : 16 бит
Метод сжатия : С потерями
Размер потока : 454 Мбайт (10%)
Язык : Russian
Аудио #2
Идентификатор : 3
Формат : AC-3
Формат/Информация : Audio Coding 3
Расширение режима : CM (complete main)
Идентификатор кодека : A_AC3
Продолжительность : 1 ч. 39 м.
Вид битрейта : Постоянный
Битрейт : 448 Кбит/сек
Канал(ы) : 6 канала(ов)
Расположение каналов : Front: L C R, Side: L R, LFE
Частота : 48,0 КГц
Битовая глубина : 16 бит
Метод сжатия : С потерями
Размер потока : 318 Мбайт (7%)
Язык : English
Текст #1
Идентификатор : 4
Формат : VobSub
Режим смешивания : zlib
Идентификатор кодека : S_VOBSUB
Идентификатор кодека/Информация : The same subtitle format used on DVDs
Язык : Russian
Текст #2
Идентификатор : 5
Формат : VobSub
Режим смешивания : zlib
Идентификатор кодека : S_VOBSUB
Идентификатор кодека/Информация : The same subtitle format used on DVDs
Язык : English
Меню
00:00:00.000 : en:00:00:00.000
00:04:02.117 : en:00:04:02.117
00:08:40.311 : en:00:08:40.311
00:13:48.369 : en:00:13:48.369
00:17:05.691 : en:00:17:05.691
00:23:49.720 : en:00:23:49.720
00:28:39.217 : en:00:28:39.217
00:33:50.237 : en:00:33:50.237
00:37:58.485 : en:00:37:58.485
00:42:09.694 : en:00:42:09.694
00:46:30.413 : en:00:46:30.413
00:50:41.497 : en:00:50:41.497
00:57:38.580 : en:00:57:38.580
01:03:38.273 : en:01:03:38.273
01:10:30.601 : en:01:10:30.601
01:14:48.818 : en:01:14:48.818
01:17:39.572 : en:01:17:39.572
01:20:06.135 : en:01:20:06.135
01:26:06.661 : en:01:26:06.661
01:32:58.907 : en:01:32:58.907

_________________
Человек – это канат, натянутый между животным и сверхчеловеком, – канат над пропастью.
В человеке ценно то, что он мост, а не цель. Фридрих Ницше


Последний раз редактировалось: Delia (2011-08-25 21:38), всего редактировалось 3 раз(а)
Вне форума [Профиль] [ЛС]
Показать сообщения:    
Ответить на тему

Текущее время: Сегодня 22:43

Часовой пояс: GMT + 3



Вы не можете начинать темы
Вы не можете отвечать на сообщения
Вы не можете редактировать свои сообщения
Вы не можете удалять свои сообщения
Вы не можете голосовать в опросах
Вы не можете прикреплять файлы к сообщениям
Вы не можете скачивать файлы