Today is a free download without charge Download

Очень синяя борода (Владимир Самсонов) [1979, Рисованный мультфильм, DVDRip]

Reply to topic
 
Author
Message

Omen ®

Longevity: 7 years 11 months

Posts: 181087

Торрент-статистика

Post 06-Oct-2015 18:01

[Quote]

Очень синяя борода
Страна: СССР
Жанр: Рисованный мультфильм
Продолжительность: 00:20:13
Год выпуска: 1979
Выпущено: ТО "Экран"
Режиссёр: Владимир Самсонов
Роли озвучивали: Михаил Боярский, Олег Анофриев, Лариса Долина, В. Игнатьева, М. Смирнова.
Описание: фильм - комическая мультопера по мотивам сказки Шарля Перро «Синяя борода» о том, как детектив расследует преступления средневекового герцога, известного как Герцог Синяя Борода: а так ли уж он виновен в смерти своих жён? В это же время выходит в свет новелла о жизни Синей Бороды, которая, очевидно, становится бестселлером, так как книгу читают все люди, которых детектив встречает на улицах…
Доп. информация: Композитор: Г. Гладков
Автор сценария: Аркадий Арканов
Оператор: Владимир Милованов
Качество: DVDRip
Формат: AVI
Видео: 704x528 (1.33:1), 25 fps, XviD 65 ~2100 kbps avg, 0.23 bit/pixel
Аудио: 48 kHz, AC3 Dolby Digital, 2/0 (L,R) ch, ~192.00 kbps avg
Субтитры: Отсутствуют
Рип заменен на более качественный 06.10.2015, просьба к скачавшим - сохранить новый торрент-файл.

сравнение старого рипа и нового

Тут - http://screenshotcomparison.com/comparison/145688/picture:0

MI

Format : AVI
Format/Info : Audio Video Interleave
File size : 333 MiB
Duration : 20mn 13s
Overall bit rate : 2 302 Kbps
Writing application : VirtualDubModRus 1.5.10.2 (build 2542/release)
Copyright : /*spam*/
Comment : DVDRip by dvdss
Video
ID : 0
Format : MPEG-4 Visual
Format profile : Advanced [email protected]
Format settings, BVOP : 2
Format settings, QPel : No
Format settings, GMC : No warppoints
Format settings, Matrix : Custom
Codec ID : XVID
Codec ID/Hint : XviD
Duration : 20mn 13s
Bit rate : 2 100 Kbps
Width : 704 pixels
Height : 528 pixels
Display aspect ratio : 5:4
Original display aspect ratio : 4:3
Frame rate : 25.000 fps
Color space : YUV
Chroma subsampling : 4:2:0
Bit depth : 8 bits
Scan type : Progressive
Compression mode : Lossy
Bits/(Pixel*Frame) : 0.226
Stream size : 304 MiB (91%)
Writing library : XviD 65
Audio
ID : 1
Format : AC-3
Format/Info : Audio Coding 3
Mode extension : CM (complete main)
Format settings, Endianness : Big
Codec ID : 2000
Duration : 20mn 13s
Bit rate mode : Constant
Bit rate : 192 Kbps
Channel(s) : 2 channels
Channel positions : Front: L R
Sampling rate : 48.0 KHz
Bit depth : 16 bits
Compression mode : Lossy
Stream size : 27.8 MiB (8%)
Alignment : Aligned on interleaves
Interleave, duration : 40 ms (1.00 video frame)
Interleave, preload duration : 512 ms

Песни из фильма

Начало
Слова Ким Ю. Музыка Гладков Ген.
Поют
Один богатый герцог не брился никогда
На нем росла красивая густая борода
Не рыжая, не сивая, а очень даже синяя
Как небо, небо и вода.
А после оказалось, что это все обман.
Всех жен своих несчастных до смерти убивал.
Бывало только женится, так весь в лице изменится
И сразу, сразу наповал.
Ужасно интересно, ведь где же это он
Достал такую бороду, убийца и пижон.
С ума сойти от ужаса, вот до чего замужество
Доводит бедных жен.
А дело тут не в этом, а дело тут не в этом,
А в том, что бородач, а в том, что бородач
Для каждой вертихвостки, для каждой вертихвостки
Был герцог и богач.
Со связями, да с именем, да с бородою синею
Со связями, да с именем, да с бородою синею
Да с бородою синею, со связями да с именем
А в сущности, а в сущности, а в сущности палач.
Прекрасная книга о синем кошмаре
Отличный подарок супружеской паре
И каждый сюжет - побеждает добро
Написана лично французом Пьерро.
Песня Марианны
Слова Ким Ю. Музыка Гладков Ген.
Поют
Здравствуй, мое чудовище, тиран синебородый
Как вижу я, ты все еще живешь не в ногу модой.
А между тем в Италии, Италии, Австралии
Тем более в Париже, который, говорят поближе
Совсем другое носят, совсем иначе бреют,
Таких там выйти просят, а это там умеют - 3р.
И обстановка там не та, и лакировка там не та
Старик, ты просто темнота, а вместо пса возьмем
кота.
- Я видел англичанку, и с нею двух собак
- Тогда твою овчарку оставим, раз уж так.
Но где же наши гости, где кубок драгоценный
My darling, ты ей богу, такой несовременный
Ты, прям, какой-то деспот, сиди, как я сижу
И помни свое место, какое укажу...
Песня Лилианны
Слова Ким Ю. Музыка Гладков Ген.
Поют
Ты чересчур оброс, а бороду, наверно,
Макнул ты в купорос, а это очень вредно.
При общей худобе ты весь какой-то крупный
Мой милый, ты преступно относишься к себе.
- Я с детсва не лечусь - Да в нем же столько силы
- Ты на краю могилы, но я тобой займусь.
Никаких бифштексов, никаких котлет
И считай, что кексов в этом мире нет.
В день по ложке масла, минимум солей.
- А вино и мясо? А вино и мясо только для гостей.
Зато :
Пр: Здоровые почки, железные нервы,
Гимнастика, йога, трусца.
И так ежедневно, и так ежедневно,
И только вот так без конца.
Не жалей для пользы головы своей
Не меняя позы походи на ней
Сделай вдох, а выдох делать не спеши,
Ну а если в силах - лучше не дыши.
Пр.
Тут уж не до жиру, так что не горюй
Строго по режиму каждый поцелуй
Лишние порыви под холодный душ
Будешь ты счастливый, будешь ты счастливый
Ангел, а не муж.
Зато :
Пр: Здоровые почки, железные нервы,
Гимнастика, йога, трусца.
И так ежедневно, до ручки, до точки
И так без конца до конца.. -
Песня Вивианны
Слова Ким Ю. Музыка Гладков Ген.
Поют
Нашу жизнь мы украсим цветами
Но побрейся скорей, дорогой.
Пусть не будет преград между нами
В том числе и усов с бородой.
И застолье, и гости, и песни,
Ежедневно, и так без конца
Улетим мы с тобой в поднебесье
И захватим любимого пса.
И бифштекс, и вино, и повидло,
И приятно и весело им,
И любви нашей краю не видно,
И любви нашей краю не видно,
Нет границ у любви.
Слава герцогу с герцогинею
Наконец-то счастливый финал.
Я клянусь бородой своей синей
Что такого и сам я не ждал
Я клянусь этой костью оленьей
Мне не надо другой госпожи
Герцогиня, прими поздравленья
И внимание нам окажи...
Приласкаю, согрею, укрою,
И захочеться вновь приласкать
Если можно обнять все живое
Я готова все это обнять
Мы свободны, как вольные птицы
Не ревнуй, не бледней, не синей
У любви не бывает границы,
У любви не бывает границы,
И чем больше она тем сильней

Скриншоты

Other forum [Profile] [PM]
Display posts from previous:    
Reply to topic

The time now is: Today 04:36

All times are GMT + 3 Hours



You cannot post new topics in this forum
You cannot reply to topics in this forum
You cannot edit your posts in this forum
You cannot delete your posts in this forum
You cannot vote in polls in this forum
You cannot attach files in this forum
You cannot download files in this forum