Today is a free download without charge Download

Тебе, Москва! (Григорий Ломидзе) [1947, мультипликационный фильм-плакат, DVDRip] [Полная версия] Eng hardsub

Reply to topic
 
Author
Message

Omen ®

Longevity: 7 years 11 months

Posts: 181087

Торрент-статистика

Post 05-Oct-2015 21:05

[Quote]

Тебе, Москва!-Страна: СССР
Жанр: мультипликационный фильм-плакат
Продолжительность: 00:17:31
Год выпуска: 1947
Русские субтитры: нет-Режиссёры: Григорий Ломидзе- | Релиз: -Описание: Фильм показывает основные исторические этапы становления Москвы от возникновения города до 1947 года: основание Москвы и строительство кремлевских стен; освобождение от татаро-монгольского ига и деятельность Ивана III; Смутное время и борьба Минина и Пожарского с польскими интервентами, Отечественная война 1812 года, Русская революция 1905 года, Великая Октябрьская социалистическая революция, Москва 30-х годов, Великая Отечественная война, День Победы.-Качество: DVDRip
Формат: AVI
Видео: 640x480 (1.33:1), 25 fps, XviD MPEG-4 ~2113 kbps avg, 0.28 bit/pixel
Аудио: 48 kHz, AC3 Dolby Digital, 2/0 (L,R) ch, ~224 kbps
Субтитры: английские вшитые (hardsub)

MediaInfo

GeneralComplete name : Тебе, Москва.1947.XviD.AC3-rutracker.aviFormat : AVIFormat/Info : Audio Video InterleaveFile size : 294 MiBDuration : 17mn 31sOverall bit rate : 2 347 KbpsMovie name : Тебе, Москва.1947.XviD.AC3-rutrackerWriting application : VirtualDubMod 1.5.10.2 (build 2542/release)Comment : РГ Мультфильмы / /*spam*/
VideoID : 0Format : MPEG-4 VisualFormat profile : Advanced [email protected] settings, BVOP : 2Format settings, QPel : NoFormat settings, GMC : No warppointsFormat settings, Matrix : CustomCodec ID : XVIDCodec ID/Hint : XviDDuration : 17mn 31sBit rate : 2 113 KbpsWidth : 640 pixelsHeight : 480 pixelsDisplay aspect ratio : 4:3Frame rate : 25.000 fpsColor space : YUVChroma subsampling : 4:2:0Bit depth : 8 bitsScan type : ProgressiveCompression mode : LossyBits/(Pixel*Frame) : 0.275Stream size : 265 MiB (90%)Writing library : XviD 65
AudioID : 1Format : AC-3Format/Info : Audio Coding 3Mode extension : CM (complete main)Format settings, Endianness : BigCodec ID : 2000Duration : 17mn 31sBit rate mode : ConstantBit rate : 224 KbpsChannel(s) : 2 channelsChannel positions : Front: L RSampling rate : 48.0 KHzCompression mode : LossyStream size : 28.1 MiB (10%)Alignment : Split accross interleavesInterleave, duration : 40 ms (1.00 video frame)Interleave, preload duration : 500 ms
Other forum [Profile] [PM]
Display posts from previous:    
Reply to topic

The time now is: Today 05:51

All times are GMT + 3 Hours



You cannot post new topics in this forum
You cannot reply to topics in this forum
You cannot edit your posts in this forum
You cannot delete your posts in this forum
You cannot vote in polls in this forum
You cannot attach files in this forum
You cannot download files in this forum