Today is a free download without charge Download

Блэк энд уайт / Белое и чёрное / Black & White (Леонид Амальрик, Иван Иванов-Вано) [1932, короткометражный мультфильм, DVDRip] Eng hardsub

Reply to topic
 
Author
Message

Omen ®

Longevity: 7 years 11 months

Posts: 181087

Торрент-статистика

Post 05-Oct-2015 21:05

[Quote]

Блэк энд уайт / Белое и чёрное / Black & White-Страна: СССР
Жанр: короткометражный мультфильм
Продолжительность: 00:02:28
Год выпуска: 1932
Русские субтитры: нет-Режиссёры: Леонид Амальрик, Иван Иванов-Вано- | Релиз: -Описание: По мотивам одноимённого стихотворения Владимира Маяковского.-Качество: DVDRip
Формат: AVI
Видео: 624x480 (1.30:1), 25 fps, XviD MPEG-4 ~2242 kbps avg, 0.30 bit/pixel
Аудио: 48 kHz, AC3 Dolby Digital, 2/0 (L,R) ch, ~224 kbps
Субтитры: английские вшитые (hardsub)

MediaInfo

GeneralComplete name : Black & White.1932.XviD.AC3-rutracker.aviFormat : AVIFormat/Info : Audio Video InterleaveFile size : 44.0 MiBDuration : 2mn 28sOverall bit rate : 2 477 KbpsMovie name : Black & White.1932.XviD.AC3-rutrackerWriting application : VirtualDubMod 1.5.10.2 (build 2542/release)Comment : РГ Мультфильмы / /*spam*/
VideoID : 0Format : MPEG-4 VisualFormat profile : Advanced [email protected] settings, BVOP : 2Format settings, QPel : NoFormat settings, GMC : No warppointsFormat settings, Matrix : CustomCodec ID : XVIDCodec ID/Hint : XviDDuration : 2mn 28sBit rate : 2 242 KbpsWidth : 624 pixelsHeight : 480 pixelsDisplay aspect ratio : 4:3Frame rate : 25.000 fpsColor space : YUVChroma subsampling : 4:2:0Bit depth : 8 bitsScan type : ProgressiveCompression mode : LossyBits/(Pixel*Frame) : 0.299Stream size : 39.8 MiB (91%)Writing library : XviD 65
AudioID : 1Format : AC-3Format/Info : Audio Coding 3Mode extension : CM (complete main)Format settings, Endianness : BigCodec ID : 2000Duration : 2mn 28sBit rate mode : ConstantBit rate : 224 KbpsChannel(s) : 2 channelsChannel positions : Front: L RSampling rate : 48.0 KHzCompression mode : LossyStream size : 3.98 MiB (9%)Alignment : Split accross interleavesInterleave, duration : 40 ms (1.00 video frame)Interleave, preload duration : 500 ms

Скриншоты

Other forum [Profile] [PM]
Display posts from previous:    
Reply to topic

The time now is: Today 08:51

All times are GMT + 3 Hours



You cannot post new topics in this forum
You cannot reply to topics in this forum
You cannot edit your posts in this forum
You cannot delete your posts in this forum
You cannot vote in polls in this forum
You cannot attach files in this forum
You cannot download files in this forum