Today is a free download without charge Download

Органчик (Николай Ходатаев) [1933, Рисованный мультфильм, WEBRip] (без вшитых субтитров)

Reply to topic
 
Author
Message

Omen ®

Longevity: 7 years 11 months

Posts: 181087

Торрент-статистика

Post 05-Oct-2015 21:05

[Quote]

Органчик
Страна: СССР
Жанр: Рисованный мультфильм
Продолжительность: 00:20:14
Год выпуска: 1933
Русские субтитры: нет
Режиссёр: Николай Ходатаев
Описание: По мотивам произведений М.Е.Салтыкова-Щедрин
Доп. информация: «Союзфильм»
Раздача группы:
Качество: WEBRip
Формат: AVI
Видео: 720x496 (1.45:1), 25 fps, XviD build 50 ~2501 kbps avg, 0.28 bit/pixel
Аудио: 48 kHz, MPEG Layer 3, 2 ch, ~320.00 kbps avg
Субтитры: нет

Подробные технические данные

Format : AVIFormat/Info : Audio Video InterleaveFile size : 410 MiBDuration : 20mn 14sOverall bit rate : 2 831 KbpsWriting application : VirtualDubMod 1.5.10.3 | www.virtualdub-fr.org || (build 2550/release)Writing library : VirtualDubMod build 2550/release
VideoID : 0Format : MPEG-4 VisualFormat profile : Advanced [email protected] settings, BVOP : 1Format settings, QPel : NoFormat settings, GMC : No warppointsFormat settings, Matrix : Default (MPEG)Codec ID : XVIDCodec ID/Hint : XviDDuration : 20mn 14sBit rate : 2 502 KbpsWidth : 720 pixelsHeight : 496 pixelsDisplay aspect ratio : 3:2Frame rate : 25.000 fpsColor space : YUVChroma subsampling : 4:2:0Bit depth : 8 bitsScan type : ProgressiveCompression mode : LossyBits/(Pixel*Frame) : 0.280Stream size : 362 MiB (88%)Writing library : XviD 1.2.1 (UTC 2008-12-04)
AudioID : 1Format : MPEG AudioFormat version : Version 1Format profile : Layer 3Codec ID : 55Codec ID/Hint : MP3Duration : 20mn 14sBit rate mode : ConstantBit rate : 320 KbpsChannel(s) : 2 channelsSampling rate : 48.0 KHzCompression mode : LossyStream size : 46.3 MiB (11%)Alignment : Aligned on interleavesInterleave, duration : 40 ms (1.00 video frame)Interleave, preload duration : 504 msWriting library : LAME3.99rEncoding settings : -m s -V 4 -q 0 -lowpass 20.5

Скриншоты

Other forum [Profile] [PM]
Similar theme
Forum Topic Author Torrent Replies Last Post
./templates/default/images/folder_dl.gif Медицина и Здоровье Анджей Гришевский, Пшемыслав Пиларски | ОН. Интимный разговор про тот самый орган (2019) [FB2] }{@R0N
1 | 0

0 | 1361

5

2019-03-07 19:03
}{@R0N Latest
Display posts from previous:    
Reply to topic

The time now is: Today 09:44

All times are GMT + 3 Hours



You cannot post new topics in this forum
You cannot reply to topics in this forum
You cannot edit your posts in this forum
You cannot delete your posts in this forum
You cannot vote in polls in this forum
You cannot attach files in this forum
You cannot download files in this forum