Today is a free download without charge Download

Не топтать фашистскому сапогу нашей Родины (Александр Иванов, Иван Иванов-Вано) [1941, мультипликационный фильм-плакат, DVDRip] Eng hardsub

Reply to topic
 
Author
Message

Omen ®

Longevity: 7 years 11 months

Posts: 181087

Торрент-статистика

Post 03-Oct-2015 21:00

[Quote]

Не топтать фашистскому сапогу нашей Родины- Страна: СССР
Жанр: мультипликационный фильм-плакат
Продолжительность: 00:02:44
Год выпуска: 1941
Русские субтитры: нет-Режиссёры: Александр Иванов, Иван Иванов-Вано- -Описание: Фашистский зверь шагает по земному шару. Под его сапогами горят страны Европы. Но, стоит ему дойти до СССР, навстречу ему устремляются отряды советской конницы, танки и самолёты. Враг уничтожен.
Агитационный киноплакат был снят ведущими режиссёрами киностудии "Союзмультфильм" в первые месяцы войны.
В фонограмме - фрагмент из музыки Прокофьева к сцене Ледового побоища из фильма "Александр Невский" и маршем бр. Покрасс "Броня крепка, и танки наши быстры..." из фильма "Трактористы" в исполнении ансамбля Александрова.-Качество: DVDRip
Формат: AVI
Видео: 640x480 (1.33:1), 25 fps, XviD MPEG-4 ~2281 kbps avg, 0.30 bit/pixel
Аудио: 48 kHz, AC3 Dolby Digital, 2/0 (L,R) ch, ~224 kbps
Субтитры: английские вшитые (hardsub)

MediaInfo

GeneralComplete name : Не топтать фашистскому сапогу нашей Родины.1941.XviD.AC3-rutracker.aviFormat : AVIFormat/Info : Audio Video InterleaveFile size : 49.5 MiBDuration : 2mn 44sOverall bit rate : 2 516 KbpsMovie name : Не топтать фашистскому сапогу нашей Родины.1941.XviD.AC3-rutrackerWriting application : VirtualDubMod 1.5.10.2 (build 2542/release)Comment : РГ Мультфильмы / /*spam*/
VideoID : 0Format : MPEG-4 VisualFormat profile : Advanced [email protected] settings, BVOP : 2Format settings, QPel : NoFormat settings, GMC : No warppointsFormat settings, Matrix : CustomCodec ID : XVIDCodec ID/Hint : XviDDuration : 2mn 44sBit rate : 2 281 KbpsWidth : 640 pixelsHeight : 480 pixelsDisplay aspect ratio : 4:3Frame rate : 25.000 fpsColor space : YUVChroma subsampling : 4:2:0Bit depth : 8 bitsScan type : ProgressiveCompression mode : LossyBits/(Pixel*Frame) : 0.297Stream size : 44.9 MiB (91%)Writing library : XviD 65
AudioID : 1Format : AC-3Format/Info : Audio Coding 3Mode extension : CM (complete main)Format settings, Endianness : BigCodec ID : 2000Duration : 2mn 44sBit rate mode : ConstantBit rate : 224 KbpsChannel(s) : 2 channelsChannel positions : Front: L RSampling rate : 48.0 KHzCompression mode : LossyStream size : 4.40 MiB (9%)Alignment : Split accross interleavesInterleave, duration : 40 ms (1.00 video frame)Interleave, preload duration : 500 ms

Скриншоты

Other forum [Profile] [PM]
Display posts from previous:    
Reply to topic

The time now is: Today 09:37

All times are GMT + 3 Hours



You cannot post new topics in this forum
You cannot reply to topics in this forum
You cannot edit your posts in this forum
You cannot delete your posts in this forum
You cannot vote in polls in this forum
You cannot attach files in this forum
You cannot download files in this forum