Today is a free download without charge Download

Проповедник с пулеметом / Machine Gun Preacher (Марк Форстер) [2011, США, боевик, драма, криминал, биография, BDRip 1080p] Dub Sub Rus + Original Eng

Reply to topic
 
Author
Message

Koralina ®

Longevity: 9 years 7 months

Posts: 994

Location: Lithuania

Торрент-статистика

Post 13-Jun-2012 21:20

[Quote]

Проповедник с пулеметом / Machine Gun Preacher Русское название: Проповедник с пулеметом
Оригинальное название: Machine Gun Preacher
Год выхода: 2011
Режиссер: Марк Форстер
В ролях: Джерард Батлер, Мишель Монахэн, Кэти Бейкер, Майкл Шеннон, Мадлен Кэрролл, Соулеймейн Сай Савейн, Грант Р. Краузе, Ривис Грэхэм, Питер Кэри, Барбара Ковен, .
Страна производства: США
Продолжительность: 129 мин. / 02:09
Продюсер: Робби Бреннер, Gary Safady, Крэйг Чэпман
Сценарий: Джейсон Келлер
Премьера в мире: 11 сентября 2011
Жанр: боевик, драма, криминал, биография
Перевод: Дублированный [лицензия]
Субтитры: Russian, English
Описание: Байкер Сэм Чайлдерс имел множество проблем с законом, но после выхода из тюрьмы, вняв мольбам жены Линн, начал посещать церковь. Бывшего преступника словно подменили: он стал примерным прихожанином, основал строительную компанию и сам возвел с нуля протестантский храм для тех, кого благополучные американцы презрительно именовали 'отбросами общества' Ровное течение жизни Сэма меняется после миссионерской поездки в Уганду и Судан. Проникнувшись состраданием к африканским детям, он решает основать приют, в котором те чувствовали бы себя в безопасности от боевиков Господней армии Сопротивления, набирающих себе солдат и сексуальных рабынь даже среди малолетних. Своих подопечных, если потребуется, Сэм готов защищать с оружием в руках. Однако в своем рвении Чайлдерс забывает о том, что обратной стороной любого благого порыва может стать одержимость
Рейтинг MPAA: R - Лицам до 17 лет обязательно присутствие взрослого
Рейтинг IMDB:
Рейтинг Kinopoisk:
Качество: BDRip 1080p
Формат аудио: DTS
Формат видео: H.264
Видео: 1920x800, 24.00 fps, 15.2 Mbps (видеоряд от CHD)
Звук 1: Russian: DTS, 1536 Kbps (6 ch)
Звук 2: English: DTS, 1536 Kbps (6 ch)

MediaInfo

Общее
Уникальный идентификатор : 243689395692341160169540457576557287439 (0xB754DED4753BE78B8090074764E1980F)
Полное имя : Machine.Gun.Preacher.2011.x264.BDRip.1080p.mkv
Формат : Matroska
Версия формата : Version 2
Размер файла : 16,3 Гбайт
Продолжительность : 2 ч. 8 м.
Общий поток : 18,2 Мбит/сек
Дата кодирования : UTC 2012-06-12 16:29:26
Программа кодирования : mkvmerge v5.4.0 ('Piper') built on Mar 10 2012 13:34:39
Библиотека кодирования : libebml v1.2.3 + libmatroska v1.3.0
Видео
Идентификатор : 1
Формат : AVC
Формат/Информация : Advanced Video Codec
Профиль формата : [email protected]
Параметр CABAC формата : Да
Параметр ReFrames формата : 5 кадров
Идентификатор кодека : V_MPEG4/ISO/AVC
Продолжительность : 2 ч. 8 м.
Битрейт : 15,2 Мбит/сек
Ширина : 1920 пикселей
Высота : 800 пикселей
Соотношение сторон : 2,40:1
Частота кадров : 24,000 кадра/сек
Цветовое пространство : YUV
Субдискретизация насыщенности : 4:2:0
Битовая глубина : 8 бит
Тип развёртки : Прогрессивная
Бит/(Пиксели*Кадры) : 0.412
Размер потока : 13,3 Гбайт (81%)
Заголовок : Machine Gun Preacher (2011)
Библиотека кодирования : x264 core 120 r2146 bcd41db
Настройки программы : cabac=1 / ref=5 / deblock=1:-3:-3 / analyse=0x3:0x113 / me=umh / subme=10 / psy=1 / psy_rd=1.05:0.10 / mixed_ref=1 / me_range=32 / chroma_me=1 / trellis=2 / 8x8dct=1 / cqm=0 / deadzone=21,11 / fast_pskip=0 / chroma_qp_offset=-2 / threads=8 / sliced_threads=0 / nr=0 / decimate=1 / interlaced=0 / bluray_compat=0 / constrained_intra=0 / bframes=6 / b_pyramid=2 / b_adapt=2 / b_bias=0 / direct=3 / weightb=1 / open_gop=0 / weightp=2 / keyint=250 / keyint_min=24 / scenecut=40 / intra_refresh=0 / rc_lookahead=40 / rc=2pass / mbtree=0 / bitrate=15171 / ratetol=1.0 / qcomp=0.70 / qpmin=0 / qpmax=69 / qpstep=4 / cplxblur=20.0 / qblur=0.5 / vbv_maxrate=40000 / vbv_bufsize=40000 / nal_hrd=none / ip_ratio=1.40 / pb_ratio=1.30 / aq=2:0.80
Язык : English
Default : Да
Forced : Нет
Аудио #1
Идентификатор : 2
Формат : DTS
Формат/Информация : Digital Theater Systems
Идентификатор кодека : A_DTS
Продолжительность : 2 ч. 8 м.
Вид битрейта : Постоянный
Битрейт : 1510 Кбит/сек
Каналы : 6 каналов
Расположение каналов : Front: L C R, Side: L R, LFE
Частота : 48,0 КГц
Битовая глубина : 16 бит
Метод сжатия : С потерями
Размер потока : 1,36 Гбайт (8%)
Заголовок : DTS 1536 k
Язык : Russian
Default : Да
Forced : Да
Аудио #2
Идентификатор : 3
Формат : DTS
Формат/Информация : Digital Theater Systems
Идентификатор кодека : A_DTS
Продолжительность : 2 ч. 8 м.
Вид битрейта : Постоянный
Битрейт : 1510 Кбит/сек
Каналы : 6 каналов
Расположение каналов : Front: L C R, Side: L R, LFE
Частота : 48,0 КГц
Битовая глубина : 24 бит
Метод сжатия : С потерями
Размер потока : 1,36 Гбайт (8%)
Заголовок : DTS 1536 k
Язык : English
Default : Нет
Forced : Нет
Текст #1
Идентификатор : 4
Формат : UTF-8
Идентификатор кодека : S_TEXT/UTF8
Идентификатор кодека/Информация : UTF-8 Plain Text
Язык : Russian
Default : Нет
Forced : Нет
Текст #2
Идентификатор : 5
Формат : UTF-8
Идентификатор кодека : S_TEXT/UTF8
Идентификатор кодека/Информация : UTF-8 Plain Text
Заголовок : SDH
Язык : Russian
Default : Нет
Forced : Нет
Текст #3
Идентификатор : 6
Формат : ASS
Идентификатор кодека : S_TEXT/ASS
Идентификатор кодека/Информация : Advanced Sub Station Alpha
Метод сжатия : Без потерь
Язык : English
Default : Нет
Forced : Нет
Меню
00:00:00.000 : :Chapter 01
00:08:50.791 : :Chapter 02
00:16:54.666 : :Chapter 03
00:25:17.333 : :Chapter 04
00:32:27.166 : :Chapter 05
00:39:44.708 : :Chapter 06
00:48:33.041 : :Chapter 07
00:56:52.083 : :Chapter 08
01:04:27.958 : :Chapter 09
01:11:36.958 : :Chapter 10
01:20:10.041 : :Chapter 11
01:29:11.125 : :Chapter 12
01:36:51.916 : :Chapter 13
01:43:40.666 : :Chapter 14
01:52:32.583 : :Chapter 15
02:02:50.166 : :Chapter 16

Скриншоты

       

_________________
Other forum [Profile] [PM]
Display posts from previous:    
Reply to topic

The time now is: Today 13:08

All times are GMT + 3 Hours



You cannot post new topics in this forum
You cannot reply to topics in this forum
You cannot edit your posts in this forum
You cannot delete your posts in this forum
You cannot vote in polls in this forum
You cannot attach files in this forum
You cannot download files in this forum