Today is a free download without charge Download

Значит, война / This Means War (МакДжи / McG) [2012, США, боевик, мелодрама, комедия, DVD9] R5, Dub Sub Rus + Original Eng

Reply to topic
 
Author
Message

Koralina ®

Longevity: 9 years 7 months

Posts: 994

Location: Lithuania

Торрент-статистика

Post 11-Jun-2012 20:32

[Quote]

Значит, война / This Means War
Русское название: Значит, война
Оригинальное название: This Means War
Год выхода: 2012
Режиссер: МакДжи / McG
В ролях: Том Харди, Крис Пайн, Риз Уизерспун, Тиль Швайгер, Челси Хэндлер, Джон Пол Руттан, Эбигейл Спенсер, Анджела Бассетт, Розмари Харрис, Джордж Тулиато
Роли дублировали: Владимир Маслаков, Андрей Кузнецов, Мария Цветкова-Овсянникова
Страна производства: США
Продолжительность: 97 мин. / 01:37
Продюсер: Саймон Кинберг, Джеймс Ласситер, Роберт Симондз
Сценарий: Тимоти Даулинг, Саймон Кинберг, Маркус Готесен
Премьера в мире: 14 февраля 2012
Жанр: боевик, мелодрама, комедия
Перевод: Профессиональный (дублированный) [Лицензия]
Cубтитры: английские, датские, финские, норвежские, русские, шведские, эстонские, латышские, литовские, украинские
Оригинальная аудиодорожка: английский
Описание: Два секретных агента, которые к тому же и закадычные друзья, влюбляются в одну и ту же женщину, но ни один не желает уступить другому.
Рейтинг MPAA: R - Лицам до 17 лет обязательно присутствие взрослого
Рейтинг IMDB:
Рейтинг Kinopoisk:
Качество: DVD9
Формат аудио: AC3
Формат видео: DVD Video
Видео: PAL 16:9 (720x576) VBR Auto Letterboxed
Аудио: English (Dolby AC3, 6 ch) 448 Kbps
Аудио 2: English (Dolby AC3, 6 ch) 384 Kbps
Аудио 3: Russian (Dolby AC3, 6 ch) 384 Kbps
Аудио 4: Ukrainian (Dolby AC3, 6 ch) 384 Kbps

DVDInfo

Код:
Title: Bob
Size: 5.34 Gb ( 5 604 354 KBytes ) - DVD-9
Enabled regions: 1, 2, 3, 4, 5, 6, 7, 8
VTS_01 :
Play Length:
Video: PAL 16:9 (720x576) VBR, Auto Letterboxed
VTS_02 :
Play Length: 01:33:34
Video: PAL 16:9 (720x576) VBR, Auto Pan&Scan
Audio:
English (Dolby AC3, 6 ch)
English (Dolby AC3, 6 ch)
Russian (Dolby AC3, 6 ch)
Ukrainian (Dolby AC3, 6 ch)
Subtitles:
English
Dansk
Suomi
Norsk
Russian
Svenska
Estonian
Latvian
Lithuanian
Ukrainian
English
Russian
Ukrainian
VTS_03 :
Play Length: 00:01:01
Video: PAL 16:9 (720x576) VBR, Auto Pan&Scan
Audio:
English (Dolby AC3, 2 ch)
Subtitles:
Arabic
Bulgarian
Hrvatski
Czech(Ceske)
Dansk
Nederlands
Estonian
Suomi
Greek
Hebrew
Magyar
Islenska
Latvian
Lithuanian
Norsk
Polish
Portugues
Romanian
Russian
Slovenian
Serbian
Svenska
Turkish
Ukrainian
VTS_04 :
Play Length: 00:00:07+00:00:14
Video: PAL 16:9 (720x576) VBR, Auto Letterboxed
Audio:
Not specified (Dolby AC3, 2 ch)
VTS_05 :
Play Length:
Video: PAL 4:3 (720x576) VBR
Audio:
Not specified (Dolby AC3, 2 ch)
VTS_06 :
Play Length: 00:00:24
Video: PAL 16:9 (720x576) VBR, Auto Pan&Scan
Audio:
Not specified (Dolby AC3, 6 ch)
VTS_07 :
Play Length: 00:00:10
Video: PAL 16:9 (720x576) VBR, Auto Pan&Scan
Audio:
Not specified (Dolby AC3, 2 ch)
VTS_08 :
Play Length: 00:00:05
Video: PAL 16:9 (720x576) VBR, Auto Pan&Scan
Audio:
Not specified (Dolby AC3, 2 ch)
VTS_09 :
Play Length: 00:01:17
Video: PAL 16:9 (720x576) VBR, Auto Pan&Scan
Audio:
Not specified (Dolby AC3, 2 ch)
VTS_10 :
Play Length: 00:01:56
Video: PAL 16:9 (720x576) VBR, Auto Pan&Scan
Audio:
English (Dolby AC3, 6 ch)
VTS_11 :
Play Length:
Video: PAL 16:9 (720x576) VBR, Auto Pan&Scan
VTS_12 :
Play Length:
Video: PAL 16:9 (720x576) VBR, Auto Pan&Scan
VTS_13 :
Play Length: 00:07:32+00:01:22+00:03:17+00:02:41+00:06:38+00:04:40+00:01:10+00:00:44
Video: PAL 16:9 (720x576) VBR, Auto Pan&Scan
Audio:
English (Dolby AC3, 2 ch)
Subtitles:
English
Dansk
Suomi
Norsk
Russian
Svenska
VTS_14 :
Play Length:
Video: PAL 16:9 (720x576) VBR, Auto Pan&Scan
VTS_15 :
Play Length:
Video: PAL 16:9 (720x576) VBR, Auto Pan&Scan
VTS_16 :
Play Length:
Video: PAL 16:9 (720x576) VBR, Auto Pan&Scan
VTS_17 :
Play Length:
Video: PAL 16:9 (720x576) VBR, Auto Pan&Scan
VTS_18 :
Play Length: 00:04:30
Video: PAL 16:9 (720x576) VBR, Auto Pan&Scan
Audio:
English (Dolby AC3, 6 ch)

MediaInfo

Код:
General
Complete name : G:\_Video\Znachit.vojna.2012.DVD9\VIDEO_TS\VTS_02_1.VOB
Format : MPEG-PS
File size : 1 024 MiB
Duration : 21mn 4s
Overall bit rate : 6 793 Kbps
Writing library : encoded by TMPGEnc (ver. 2.524.63.181)
Video
ID : 224 (0xE0)
Format : MPEG Video
Format version : Version 2
Format profile : [email protected]
Format settings, BVOP : Yes
Format settings, Matrix : Custom
Duration : 21mn 4s
Bit rate mode : Variable
Bit rate : 5 057 Kbps
Width : 720 pixels
Height : 576 pixels
Display aspect ratio : 16:9
Frame rate : 25.000 fps
Standard : PAL
Color space : YUV
Chroma subsampling : 4:2:0
Bit depth : 8 bits
Scan type : Progressive
Compression mode : Lossy
Bits/(Pixel*Frame) : 0.488
Stream size : 762 MiB (74%)
Writing library : TMPGEnc 2.524.63.181
Audio #1
ID : 189 (0xBD)-128 (0x80)
Format : AC-3
Format/Info : Audio Coding 3
Mode extension : CM (complete main)
Muxing mode : DVD-Video
Duration : 21mn 4s
Bit rate mode : Constant
Bit rate : 448 Kbps
Channel(s) : 6 channels
Channel positions : Front: L C R, Side: L R, LFE
Sampling rate : 48.0 KHz
Bit depth : 16 bits
Compression mode : Lossy
Delay relative to video : 6ms
Stream size : 67.5 MiB (7%)
Audio #2
ID : 189 (0xBD)-129 (0x81)
Format : AC-3
Format/Info : Audio Coding 3
Mode extension : CM (complete main)
Muxing mode : DVD-Video
Duration : 21mn 4s
Bit rate mode : Constant
Bit rate : 384 Kbps
Channel(s) : 6 channels
Channel positions : Front: L C R, Side: L R, LFE
Sampling rate : 48.0 KHz
Bit depth : 16 bits
Compression mode : Lossy
Delay relative to video : 6ms
Stream size : 57.9 MiB (6%)
Audio #3
ID : 189 (0xBD)-130 (0x82)
Format : AC-3
Format/Info : Audio Coding 3
Mode extension : CM (complete main)
Muxing mode : DVD-Video
Duration : 21mn 4s
Bit rate mode : Constant
Bit rate : 384 Kbps
Channel(s) : 6 channels
Channel positions : Front: L C R, Side: L R, LFE
Sampling rate : 48.0 KHz
Bit depth : 16 bits
Compression mode : Lossy
Delay relative to video : 6ms
Stream size : 57.9 MiB (6%)
Audio #4
ID : 189 (0xBD)-131 (0x83)
Format : AC-3
Format/Info : Audio Coding 3
Mode extension : CM (complete main)
Muxing mode : DVD-Video
Duration : 21mn 4s
Bit rate mode : Constant
Bit rate : 384 Kbps
Channel(s) : 6 channels
Channel positions : Front: L C R, Side: L R, LFE
Sampling rate : 48.0 KHz
Bit depth : 16 bits
Compression mode : Lossy
Delay relative to video : 6ms
Stream size : 57.9 MiB (6%)
Text #1
ID : 189 (0xBD)-32 (0x20)
Format : RLE
Format/Info : Run-length encoding
Muxing mode : DVD-Video
Text #2
ID : 189 (0xBD)-33 (0x21)
Format : RLE
Format/Info : Run-length encoding
Muxing mode : DVD-Video
Text #3
ID : 189 (0xBD)-34 (0x22)
Format : RLE
Format/Info : Run-length encoding
Muxing mode : DVD-Video
Text #4
ID : 189 (0xBD)-35 (0x23)
Format : RLE
Format/Info : Run-length encoding
Muxing mode : DVD-Video
Text #5
ID : 189 (0xBD)-36 (0x24)
Format : RLE
Format/Info : Run-length encoding
Muxing mode : DVD-Video
Text #6
ID : 189 (0xBD)-37 (0x25)
Format : RLE
Format/Info : Run-length encoding
Muxing mode : DVD-Video
Text #7
ID : 189 (0xBD)-38 (0x26)
Format : RLE
Format/Info : Run-length encoding
Muxing mode : DVD-Video
Text #8
ID : 189 (0xBD)-39 (0x27)
Format : RLE
Format/Info : Run-length encoding
Muxing mode : DVD-Video
Text #9
ID : 189 (0xBD)-40 (0x28)
Format : RLE
Format/Info : Run-length encoding
Muxing mode : DVD-Video
Text #10
ID : 189 (0xBD)-41 (0x29)
Format : RLE
Format/Info : Run-length encoding
Muxing mode : DVD-Video
Menu

Скриншоты меню

 
 
 
   

Скриншоты

 
 
 
             

Скриншоты доп. материалов

             

_________________
Other forum [Profile] [PM]
Display posts from previous:    
Reply to topic

The time now is: Today 13:32

All times are GMT + 3 Hours



You cannot post new topics in this forum
You cannot reply to topics in this forum
You cannot edit your posts in this forum
You cannot delete your posts in this forum
You cannot vote in polls in this forum
You cannot attach files in this forum
You cannot download files in this forum