Today is a free download without charge Download

Учитель на замену / Detachment (Тони Кэй / Tony Kaye) [2011, США, драма, DVD9]

Reply to topic
 
Author
Message

Koralina ®

Longevity: 9 years 7 months

Posts: 994

Location: Lithuania

Торрент-статистика

Post 11-Jun-2012 19:14

[Quote]

Учитель на замену / Detachment
Русское название: Учитель на замену
Оригинальное название: Detachment
Год выхода: 2011
Режиссер: Тони Кэй / Tony Kaye
В ролях: Эдриан Броуди, Кристина Хендрикс, Марша Гэй Харден, Джеймс Каан, Люси Лью, Блайт Даннер, Тим Блейк Нельсон, Уильям Л. Питерсен, Брайан Крэнстон, Сами Гэй
Страна производства: США
Продолжительность: 100 мин. / 01:40
Продюсер: Остин Старк, Бинго Губельман, Бенжи Кон
Сценарий: Карл Ланд
Премьера в мире: 25 апреля 2011
Жанр: драма
Перевод: Профессиональный (многоголосый закадровый)
Cубтитры: русские
Описание: У Генри Барта настоящий талант ладить с учениками. Чтобы избежать каких-либо эмоциональных привязанностей к подопечным, он решил нигде не задерживаться на длительное время. Когда он прибывает на новое место в государственную школу, где учителя абсолютно безразличны к судьбе учеников, то быстро становится образцом для подражания и самым популярным педагогом.
Рейтинг IMDB:
Рейтинг Kinopoisk:
Качество: DVD9
Формат аудио: AC3
Формат видео: DVD Video
Видео: PAL 16:9 (720x576)@(1204x576) VBR Auto Letterboxed ~ 7001 kbps avg
Аудио 1: Russian (Dolby AC3, 6 ch, 448 kbps)
Аудио 2: English (Dolby AC3, 6 ch, 448 kbps)

DVDInfo

Title: Ychitel.Na.Zameny.2011.DVD-9
Size: 5.86 Gb ( 6 145 152,00 KBytes ) - DVD-9
Enabled regions: 1, 2, 3, 4, 5, 6, 7, 8
VTS_01 :
Play Length: 00:00:05
Video: PAL 4:3 (720x576) VBR
Subtitles:
English
English
VTS_02 :
Play Length: 00:00:09
Video: PAL 16:9 (720x576) VBR, Auto Letterboxed
Audio:
Not specified (Dolby AC3, 2 ch)
VTS_03 :
Play Length: 00:02:13
Video: PAL 16:9 (720x576) VBR, Auto Letterboxed
Audio:
Not specified (Dolby AC3, 2 ch)
Not specified (Dolby AC3, 2 ch)
Subtitles:
Not specified
VTS_04 :
Play Length: 01:33:39
Video: PAL 16:9 (720x576) VBR, Auto Letterboxed
Audio:
Russian (Dolby AC3, 6 ch)
English (Dolby AC3, 6 ch)
Subtitles:
Russian
VTS_05 :
Play Length: 00:01:34
Video: PAL 16:9 (720x576) VBR, Auto Letterboxed
Audio:
Not specified (Dolby AC3, 2 ch)
Subtitles:
Not specified
VTS_06 :
Play Length: 00:02:21
Video: PAL 16:9 (720x576) VBR, Auto Letterboxed
Audio:
Not specified (Dolby AC3, 2 ch)
Not specified (Dolby AC3, 2 ch)
Not specified (Dolby AC3, 2 ch)
Subtitles:
Not specified
VTS_07 :
Play Length: 00:01:12
Video: PAL 16:9 (720x576) VBR, Auto Letterboxed
Audio:
Not specified (Dolby AC3, 6 ch)
Subtitles:
Not specified
VTS_08 :
Play Length: 00:01:26
Video: PAL 16:9 (720x576) VBR, Auto Letterboxed
Audio:
Not specified (Dolby AC3, 2 ch)
Subtitles:
Not specified
VTS_09 :
Play Length: 00:02:21
Video: PAL 16:9 (720x576) VBR, Auto Letterboxed
Audio:
Not specified (Dolby AC3, 2 ch)
Not specified (Dolby AC3, 2 ch)
Subtitles:
Not specified
VTS_10 :
Play Length: 00:02:08
Video: PAL 16:9 (720x576) VBR, Auto Letterboxed
Audio:
Not specified (Dolby AC3, 2 ch)
Subtitles:
Not specified
VTS_11 :
Play Length: 00:03:33
Video: PAL 16:9 (720x576) VBR, Auto Letterboxed

MediaInfo

Код:
Общее
Полное имя : D:\Ychitel.Na.Zameny.2011.DVD-9\VIDEO_TS\VTS_04_1.VOB
Формат : MPEG-PS
Размер файла : 1024 Мбайт
Продолжительность : 17 м.
Режим общего битрейта : Переменный
Общий поток : 8057 Кбит/сек
Видео
Идентификатор : 224 (0xE0)
Формат : MPEG Video
Версия формата : Version 2
Профиль формата : [email protected]
Параметр BVOP формата : Да
Параметр матрицы формата : По умолчанию
Параметр GOP формата : M=3, N=12
Продолжительность : 17 м.
Вид битрейта : Переменный
Битрейт : 7001 Кбит/сек
Максимальный битрейт : 8000 Кбит/сек
Ширина : 720 пикселей
Высота : 576 пикселей
Соотношение сторон : 16:9
Частота кадров : 25,000 кадров/сек
Стандарт вещания : PAL
Цветовое пространство : YUV
Субдискретизация насыщенности : 4:2:0
Битовая глубина : 8 бит
Тип развёртки : Прогрессивная
Метод сжатия : С потерями
Бит/(Пиксели*Кадры) : 0.675
Размер потока : 890 Мбайт (87%)
Аудио #1
Идентификатор : 189 (0xBD)-128 (0x80)
Формат : AC-3
Формат/Информация : Audio Coding 3
Расширение режима : CM (complete main)
Параметр Endianness формата : Big
Режим смешивания : DVD-Video
Продолжительность : 17 м.
Вид битрейта : Постоянный
Битрейт : 448 Кбит/сек
Каналы : 6 каналов
Расположение каналов : Front: L C R, Side: L R, LFE
Частота : 48,0 КГц
Битовая глубина : 16 бит
Метод сжатия : С потерями
Размер потока : 56,9 Мбайт (6%)
Аудио #2
Идентификатор : 189 (0xBD)-129 (0x81)
Формат : AC-3
Формат/Информация : Audio Coding 3
Расширение режима : CM (complete main)
Параметр Endianness формата : Big
Режим смешивания : DVD-Video
Продолжительность : 17 м.
Вид битрейта : Постоянный
Битрейт : 448 Кбит/сек
Каналы : 6 каналов
Расположение каналов : Front: L C R, Side: L R, LFE
Частота : 48,0 КГц
Битовая глубина : 16 бит
Метод сжатия : С потерями
Размер потока : 56,9 Мбайт (6%)
Текст
Идентификатор : 189 (0xBD)-32 (0x20)
Формат : RLE
Формат/Информация : Run-length encoding
Режим смешивания : DVD-Video
Меню

Скриншоты меню

 
 
 
 

Скриншоты

 
 
 
             

_________________


Last edited by Koralina on 2012-06-11 23:24; edited 1 time in total
Other forum [Profile] [PM]
Similar theme
Forum Topic Author Torrent Replies Last Post
./templates/default/images/folder_dl.gif Техническая и научно-популярная литература А. В. Белов | Самоучитель по микропроцессорной технике. 2-е издание (2007) [DJVU] Omen
1 | 0

0 | 556

9

2015-04-27 19:59
Omen Latest
Display posts from previous:    
Reply to topic

The time now is: Today 12:38

All times are GMT + 3 Hours



You cannot post new topics in this forum
You cannot reply to topics in this forum
You cannot edit your posts in this forum
You cannot delete your posts in this forum
You cannot vote in polls in this forum
You cannot attach files in this forum
You cannot download files in this forum