Today is a free download without charge Download

Однажды (Ренат Давлетьяров) [2013, Россия, мелодрама, драма, HDTV 1080i] + Original Rus

Reply to topic
 
Author
Message

Omen ®

Longevity: 8 years 10 months

Posts: 181086

Торрент-статистика

Post 26-Sep-2015 00:57

[Quote]

Однажды
Страна: Россия
Студия: ООО Компания "Реал-Дакота"
Жанр: мелодрама, драма
Год выпуска: 2013
Продолжительность: 01:34:12
Перевод: Не требуется
Cубтитры: нет
Оригинальная аудиодорожка: русский
Режиссер: Ренат Давлетьяров
В ролях: Юрий Дейнекин, Дарья Мельникова, Никита Калинин, Александр Мельников, Артур Мухамадияров, Михаил Тройник, Кристина Бабушкина, Аполлинария Муравьёва, Алена Каримская, Анатолий Шульев
Описание:
Однажды Лешка понял, что влюблен. В бывшую девушку брата. Ему еще не было и 16-ти, а ей уже исполнилось 17. Она носила очень короткую юбку и ходила гулять с ребятами из другого района. Впереди у Лешки был последний звонок, последний год жизни в городке и первое серьезное испытание. Он согласился с Таней на пари: проигравший обязан исполнить любое желание победителя…

Сэмпл: http://multi-up.com/1068244
Тип релиза: HDTV 1080i
Контейнер: TS
Видео: AVC, 1920x1080, (16:9), 25 fps, 10.2 Mbps, 0.196 bit/pixel
Аудио#1: Russian, AC3, 48 kHz, 6 ch; 448 kbps
Аудио#2: Russian, MP2, 48 kHz, 2ch; 192 kbps

MediaInfo

General
ID : 1 (0x1)
Complete name : C:\Однажды.ts
Format : MPEG-TS
File size : 7.53 GiB
Duration : 1h 34mn
Overall bit rate mode : Variable
Overall bit rate : 11.4 Mbps
Video
ID : 3551 (0xDDF)
Menu ID : 34015 (0x84DF)
Format : AVC
Format/Info : Advanced Video Codec
Format profile : [email protected]
Format settings, CABAC : Yes
Format settings, ReFrames : 3 frames
Codec ID : 27
Duration : 1h 34mn
Bit rate : 10.2 Mbps
Width : 1 920 pixels
Height : 1 080 pixels
Display aspect ratio : 16:9
Frame rate : 25.000 fps
Standard : Component
Color space : YUV
Chroma subsampling : 4:2:0
Bit depth : 8 bits
Scan type : Interlaced
Scan order : Top Field First
Bits/(Pixel*Frame) : 0.196
Stream size : 6.73 GiB (89%)
Color range : Limited
Color primaries : BT.709
Transfer characteristics : BT.709
Matrix coefficients : BT.709
Audio #1
ID : 3552 (0xDE0)
Menu ID : 34015 (0x84DF)
Format : AC-3
Format/Info : Audio Coding 3
Mode extension : CM (complete main)
Format settings, Endianness : Big
Codec ID : 6
Duration : 1h 34mn
Bit rate mode : Constant
Bit rate : 448 Kbps
Channel(s) : 6 channels
Channel positions : Front: L C R, Side: L R, LFE
Sampling rate : 48.0 KHz
Compression mode : Lossy
Delay relative to video : -120ms
Stream size : 303 MiB (4%)
Language : Russian
Audio #2
ID : 3553 (0xDE1)
Menu ID : 34015 (0x84DF)
Format : MPEG Audio
Format version : Version 1
Format profile : Layer 2
Codec ID : 3
Duration : 1h 34mn
Bit rate mode : Constant
Bit rate : 192 Kbps
Channel(s) : 2 channels
Sampling rate : 48.0 KHz
Compression mode : Lossy
Delay relative to video : -120ms
Stream size : 130 MiB (2%)
Language : Russian

Скриншоты

Other forum [Profile] [PM]
Display posts from previous:    
Reply to topic

The time now is: Today 14:43

All times are GMT + 3 Hours



You cannot post new topics in this forum
You cannot reply to topics in this forum
You cannot edit your posts in this forum
You cannot delete your posts in this forum
You cannot vote in polls in this forum
You cannot attach files in this forum
You cannot download files in this forum