Today is a free download without charge Download

ЖАRА (Резо Гигинеишвили) [2006, Россия, комедия, HDTV 1080i] + Original Rus

Reply to topic
 
Author
Message

Omen ®

Longevity: 8 years 10 months

Posts: 181086

Торрент-статистика

Post 25-Sep-2015 21:00

[Quote]

ЖАRА«Их ждали - они вернулись» Страна: Россия
Жанр: комедия
Год выпуска: 2006
Продолжительность: 01:34:46
Перевод: Не требуется
Cубтитры: нет
Оригинальная аудиодорожка: русский
Режиссер: Резо Гигинеишвили
В ролях: Агния Дитковските, Артур Смольянинов, Константин Крюков, Алексей Чадов, Тимати, Тигран Кеосаян, Анастасия Кочеткова, Игорь Верник,, Ирина Скобцева, Фёдор Бондарчук
Описание: Москва, жаркий день лета 2006. Четверо школьных друзей — Алексей, вернувшийся из армии, Костя — сын богатых родителей, отучившийся в Лондоне, Артур — начинающий амбициозный актер и рэпер Тимати — встречаются после долгой разлуки. Они еще не подозревают о том, что эта встреча круто изменит жизнь каждого из них…
В круговороте столичной жизни сплетаются десятки сюжетов и человеческих судеб: один из приятелей находит свою любовь, другой обретает себя в профессии, третий получает ответы на давно мучившие его вопросы…
Сэмпл: http://multi-up.com/1068186

Тип релиза: HDTV 1080i
Контейнер: TS
Видео: AVC/H.264, PAL, 1920x1080 (16:9), 12,1 Мбит/сек, 25.000 fps
Аудио: русский, MP2, 2ch, 48,0 КГц, 192 Кбит/сек
Аудио 2: русский, AC3, 6ch, 48,0 КГц, 448 Кбит/сек

MediaInfo

Общее
Идентификатор : 1 (0x1)
Полное имя : D:\Жаra.ts
Формат : MPEG-TS
Размер файла : 8,86 Гбайт
Продолжительность : 1 ч. 34 м.
Режим общего битрейта : Переменный
Общий поток : 13,4 Мбит/сек
Видео
Идентификатор : 3551 (0xDDF)
Идентификатор меню : 34015 (0x84DF)
Формат : AVC
Формат/Информация : Advanced Video Codec
Профиль формата : [email protected]
Параметр CABAC формата : Да
Параметр ReFrames формата : 3 кадра
Идентификатор кодека : 27
Продолжительность : 1 ч. 34 м.
Битрейт : 12,1 Мбит/сек
Ширина : 1920 пикселей
Высота : 1080 пикселей
Соотношение сторон : 16:9
Частота кадров : 25,000 кадров/сек
Стандарт вещания : Component
Цветовое пространство : YUV
Субдискретизация насыщенности : 4:2:0
Битовая глубина : 8 бит
Тип развёртки : Чересстрочная
Порядок развёртки : Верхнее поле первое
Бит/(Пиксели*Кадры) : 0.233
Размер потока : 7,99 Гбайт (90%)
Основные цвета : BT.709
Характеристики трансфера : BT.709
Коэффициенты матрицы : BT.709
colour_range : Limited
Аудио #1
Идентификатор : 3553 (0xDE1)
Идентификатор меню : 34015 (0x84DF)
Формат : MPEG Audio
Версия формата : Version 1
Профиль формата : Layer 2
Идентификатор кодека : 3
Продолжительность : 1 ч. 34 м.
Вид битрейта : Постоянный
Битрейт : 192 Кбит/сек
Каналы : 2 канала
Частота : 48,0 КГц
Метод сжатия : С потерями
Задержка видео : -120 мс.
Размер потока : 130 Мбайт (1%)
Аудио #2
Идентификатор : 3552 (0xDE0)
Идентификатор меню : 34015 (0x84DF)
Формат : AC-3
Формат/Информация : Audio Coding 3
Расширение режима : CM (complete main)
Параметр Endianness формата : Big
Идентификатор кодека : 6
Продолжительность : 1 ч. 34 м.
Вид битрейта : Постоянный
Битрейт : 448 Кбит/сек
Каналы : 6 каналов
Расположение каналов : Front: L C R, Side: L R, LFE
Частота : 48,0 КГц
Битовая глубина : 16 бит
Метод сжатия : С потерями
Задержка видео : -120 мс.
Размер потока : 304 Мбайт (3%)
Язык : Russian

Скриншот с названием фильма

Скриншоты

Other forum [Profile] [PM]
Display posts from previous:    
Reply to topic

The time now is: Today 20:47

All times are GMT + 3 Hours



You cannot post new topics in this forum
You cannot reply to topics in this forum
You cannot edit your posts in this forum
You cannot delete your posts in this forum
You cannot vote in polls in this forum
You cannot attach files in this forum
You cannot download files in this forum