Today is a free download without charge Download

600 кг золота / 600 kilos d'or pur (Эрик Беснард / Eric Besnard) [2010, Франция, комедия, приключения, BDRip 1080p] DVO + Original (fre) + Sub (fre)

Reply to topic
 
Author
Message

andrei_spb ®

Gender:

Longevity: 8 years 9 months

Posts: 44

Location: Санкт Петербург

Торрент-статистика

Post 10-Feb-2011 13:16

[Quote]

600 кг золота / 600 kilos d'or pur
Страна: Франция
Студия: Aldabra films, Canal+ [fr], Gaumont
Жанр: комедия, приключения
Год выпуска: 2010
Продолжительность: 01:39:24
Перевод: Профессиональный (двухголосый)
Субтитры: французский
Оригинальная аудиодорожка: французский
Режиссер: Эрик Беснард / Eric Besnard
В ролях: Кловис Корнийяк, Одри Дана, Патрик Шенэ, Клаудио Сантамария, Бруно Соло, Эрик Эбони, Жерар Клейн, Мехди Неббу, Юбер Сен-Макари, Жан-Пьер Мартен...
Описание: Несколько отчаянных искателей приключений объединяется, чтобы купить золотодобывающую шахту в Гайане. Когда рискованная сделка срывается, героям приходится спешно скрываться на вертолете, который терпит крушение в непролазных джунглях. С собой у путешественников 600 килограммов золота. Вскоре эта ноша становится слишком тяжелой…
Вскоре инстинкт выживания берет верх над жаждой богатства, но никто не хочет оставаться в дураках. И вот уже золотая лихорадка превращает бывших товарищей в смертных врагов…
Качество видео: BDRip 1080p
Формат видео: MKV
Видео: 1920x816 (2.35:1), 24.000 fps, H264 ~9929 kbps avg, 0.264 bit/pixel
Аудио 1: Русский, 48 kHz, AC3, 6 ch, 448.00 kbps Constant
Аудио 2: Французский, 48 kHz, DTS, 6 ch, 1536.00 kbps Constant
Формат субтитров: SoftSub (Srt)

MI

Код:
Общее
Полное имя : 600.kg.zolota.2010.P.BDRip.1080p.mkv
Формат : Matroska
Размер файла : 8,25 Гбайт
Продолжительность : 1 ч. 39 м.
Общий поток : 11,9 Мбит/сек
Название фильма : avproh
Дата кодирования : UTC 2011-02-08 15:54:16
Программа кодирования : mkvmerge v4.4.0 ('Die Wiederkehr') сборка от Oct 31 2010 21:52:48
Библиотека кодирования : libebml v1.0.0 + libmatroska v1.0.0
Видео
Идентификатор : 1
Формат : AVC
Формат/Информация : Advanced Video Codec
Профиль формата : [email protected]
Параметр CABAC формата : Да
Параметр ReFrames формата : 5 кадры
Идентификатор кодека : V_MPEG4/ISO/AVC
Продолжительность : 1 ч. 39 м.
Битрейт : 9929 Кбит/сек
Ширина : 1920 пикс.
Высота : 816 пикс.
Соотношение сторон : 2,35:1
Частота кадров : 24,000 кадр/сек
Цветовое пространство : YUV
Подвыборка цветности : 4:2:0
Битовая глубина : 8 бит
Тип развёртки : Прогрессивная
Бит/(Пиксели*Кадры) : 0.264
Размер потока : 6,73 Гбайт (82%)
Библиотека кодирования : x264 core 112 r1834 a51816a
Настройки программы : cabac=1 / ref=5 / deblock=1:0:0 / analyse=0x3:0x113 / me=umh / subme=7 / psy=1 / psy_rd=1.00:0.15 / mixed_ref=1 / me_range=16 / chroma_me=1 / trellis=1 / 8x8dct=1 / cqm=0 / deadzone=21,11 / fast_pskip=0 / chroma_qp_offset=-3 / threads=3 / sliced_threads=0 / nr=0 / decimate=1 / interlaced=0 / constrained_intra=0 / bframes=3 / b_pyramid=2 / b_adapt=1 / b_bias=0 / direct=1 / weightb=1 / open_gop=0 / weightp=2 / keyint=250 / keyint_min=24 / scenecut=40 / intra_refresh=0 / rc_lookahead=40 / rc=2pass / mbtree=1 / bitrate=9929 / ratetol=1.0 / qcomp=0.60 / qpmin=0 / qpmax=51 / qpstep=4 / cplxblur=20.0 / qblur=0.5 / ip_ratio=1.40 / aq=1:1.00
Язык : French
Аудио #1
Идентификатор : 2
Формат : AC-3
Формат/Информация : Audio Coding 3
Расширение режима : CM (complete main)
Идентификатор кодека : A_AC3
Продолжительность : 1 ч. 39 м.
Вид битрейта : Постоянный
Битрейт : 448 Кбит/сек
Канал(ы) : 6 канала(ов)
Расположение каналов : Front: L C R, Side: L R, LFE
Частота : 48,0 КГц
Битовая глубина : 16 бит
Метод сжатия : С потерями
Размер потока : 319 Мбайт (4%)
Язык : Russian
Аудио #2
Идентификатор : 3
Формат : DTS
Формат/Информация : Digital Theater Systems
Идентификатор кодека : A_DTS
Продолжительность : 1 ч. 39 м.
Вид битрейта : Постоянный
Битрейт : 1510 Кбит/сек
Канал(ы) : 6 канала(ов)
Расположение каналов : Front: L C R, Side: L R, LFE
Частота : 48,0 КГц
Битовая глубина : 24 бит
Метод сжатия : С потерями
Размер потока : 1,05 Гбайт (13%)
Язык : French
Текст
Идентификатор : 4
Формат : UTF-8
Идентификатор кодека : S_TEXT/UTF8
Идентификатор кодека/Информация : UTF-8 Plain Text
Язык : French

Скриншоты

   

_________________
8мб/c 10мб/c 24/7


Last edited by andrei_spb on 2011-04-17 21:34; edited 2 times in total
Other forum [Profile] [PM]

andrei_spb ®

Gender:

Longevity: 8 years 9 months

Posts: 44

Location: Санкт Петербург

Торрент-статистика

Post 10-Feb-2011 13:21 (after 5 minutes)

[Quote]

На раздаче буду через 2 часа!
Извините за неудобства! Sad

_________________
8мб/c 10мб/c 24/7
Other forum [Profile] [PM]

Varius

Gender:

Longevity: 9 years 7 months

Posts: 2417

Location: Hell

Торрент-статистика

Post 10-Feb-2011 15:37 (after 2 hours 15 minutes)

[Quote]

andrei_spb
размер обложки не должен превышать 500*500 Px

_________________

Создавая "Новую папку", не считайте себя Создателем - это право Вам дано Админом


Other forum [Profile] [PM]

andrei_spb ®

Gender:

Longevity: 8 years 9 months

Posts: 44

Location: Санкт Петербург

Торрент-статистика

Post 10-Feb-2011 16:36 (after 59 minutes)

[Quote]

Varius
Исправил! Smile

_________________
8мб/c 10мб/c 24/7
Other forum [Profile] [PM]
Display posts from previous:    
Reply to topic

The time now is: Today 11:15

All times are GMT + 3 Hours



You cannot post new topics in this forum
You cannot reply to topics in this forum
You cannot edit your posts in this forum
You cannot delete your posts in this forum
You cannot vote in polls in this forum
You cannot attach files in this forum
You cannot download files in this forum