Today is a free download without charge Download

Сатисфакция (Анна Матисон) [2010, Россия, драма, Blu-ray disc 1080p] + Original Rus

Reply to topic
 
Author
Message

Omen ®

Longevity: 8 years 10 months

Posts: 181086

Торрент-статистика

Post 17-Sep-2015 03:00

[Quote]

Сатисфакция Год выпуска: 2010
Страна: Россия
Жанр: драма
Продолжительность: 01:37:09
Перевод: не требуется
Субтитры: нет
Режиссёр: Анна Матисон
В ролях: Евгений Гришковец, Денис Бургазлиев, Олег Малышев, Евгений Солонинкин, Павел Харланчук, Михаил Мешакин, Анастасия Шинкаренко, Алексей Орлов, Анна Дружинина, Родион Бровкин
Описание: Главный герой Александр, крупный бизнесмен и влиятельный человек в своем городе, после напряженного рабочего дня везет своего друга и помощника Дмитрия в ресторан. Но к удивлению Дмитрия, там их не ждут ни деловые партнеры, ни друзья — в помещении вообще нет посетителей. Мужчинам придется провести время в компании молчаливых официантов и многочисленных бутылок с содержимым различной крепости. Когда дверь запирается изнутри, у двух героев на выяснение отношений остается целая ночь.
Тип релиза: Blu-ray disc 1080p
Контейнер: BDMV
Видео: MPEG-4 AVC, 1920x1080 (16:9), 24 fps, 12570 kbps
Аудио : Russian LPCM 5.1, 6912 kbps, 48 kHz, 24-bit
Навигация по главам: есть


Сэмпл

BDInfo

Disc Title: Сатисфакция (2010)
Disc Size: 15 111 741 981 bytes
Protection: AACS
BD-Java: Yes
BDInfo: 0.5.1
Notes:
BDINFO HOME AND REPORTS SUBMISSION:
Cinema Squid
http://www.cinemasquid.com/Tools.aspx
INCLUDES FORUMS REPORT FOR:
Unofficial Blu-ray Audio and Video Specifications Thread
http://www.avsforum.com/avs-vb/showthread.php?t=760714
http://forum.blu-ray.com/showthread.php?t=3338
********************
PLAYLIST: 00002.MPLS
********************
Код:
Total Video
Title Codec Length Movie Size Disc Size Bitrate Bitrate Main Audio Track Secondary Audio Track
----- ------ ------- -------------- -------------- ------- ------- ------------------ ---------------------
00002.MPLS AVC 1:37:09 14 994 137 088 15 111 741 981 20,58 12,57 LPCM 5.1 6912Kbps (48kHz/24-bit)
Код:
DISC INFO:
Disc Title:     Сатисфакция (2010)
Disc Size:      15 111 741 981 bytes
Protection:     AACS
BD-Java:        Yes
BDInfo:         0.5.1
PLAYLIST REPORT:
Name:                   00002.MPLS
Size:                   14 994 137 088 bytes
Length:                 1:37:09 (h:m:s)
Total Bitrate:          20,58 Mbps
Description:
VIDEO:
Codec                   Bitrate             Description
-----                   -------             -----------
MPEG-4 AVC Video        12570 kbps          1080p / 24 fps / 16:9 / High Profile 4.1
AUDIO:
Codec                           Language        Bitrate         Description
-----                           --------        -------         -----------
LPCM Audio                      Russian         6912 kbps       5.1 / 48 kHz / 6912 kbps / 24-bit
FILES:
Name            Time In         Length          Size            Total Bitrate
----            -------         ------          ----            -------------
00002.M2TS      0:00:00.000     1:37:09.000     14 994 137 088  20 579
CHAPTERS:
Number          Time In         Length          Avg Video Rate  Max 1-Sec Rate  Max 1-Sec Time  Max 5-Sec Rate  Max 5-Sec Time  Max 10Sec Rate  Max 10Sec Time  Avg Frame Size  Max Frame Size  Max Frame Time
------          -------         ------          --------------  --------------  --------------  --------------  --------------  --------------  --------------  --------------  --------------  --------------
1               0:00:00.000     1:37:09.000     12 570 kbps     52 841 kbps     01:33:31.708    39 234 kbps     01:33:30.208    35 262 kbps     00:00:31.250    65 466 bytes    711 779 bytes   00:01:29.541
STREAM DIAGNOSTICS:
File            PID             Type            Codec           Language                Seconds                 Bitrate                 Bytes           Packets
----            ---             ----            -----           --------                --------------          --------------          -------------   -----
00002.M2TS      4113 (0x1011)   0x1B            AVC                                     5828,917                12 570                  9 158 497 242   49 856 220
00002.M2TS      4352 (0x1100)   0x80            LPCM            rus (Russian)           5828,917                6 918                   5 040 914 324   27 979 196
********************
PLAYLIST: 01002.MPLS
********************
Код:
Total   Video
Title                                                           Codec   Length  Movie Size      Disc Size       Bitrate Bitrate Main Audio Track                          Secondary Audio Track
-----                                                           ------  ------- --------------  --------------  ------- ------- ------------------                        ---------------------
01002.MPLS                                                      AVC     1:37:09 14 994 137 088  15 111 741 981  20,58   12,57   LPCM 5.1 6912Kbps (48kHz/24-bit)
Код:
DISC INFO:
Disc Title:     Сатисфакция (2010)
Disc Size:      15 111 741 981 bytes
Protection:     AACS
BD-Java:        Yes
BDInfo:         0.5.1
PLAYLIST REPORT:
Name:                   01002.MPLS
Size:                   14 994 137 088 bytes
Length:                 1:37:09 (h:m:s)
Total Bitrate:          20,58 Mbps
Description:
VIDEO:
Codec                   Bitrate             Description
-----                   -------             -----------
MPEG-4 AVC Video        12570 kbps          1080p / 24 fps / 16:9 / High Profile 4.1
AUDIO:
Codec                           Language        Bitrate         Description
-----                           --------        -------         -----------
LPCM Audio                      Russian         6912 kbps       5.1 / 48 kHz / 6912 kbps / 24-bit
FILES:
Name            Time In         Length          Size            Total Bitrate
----            -------         ------          ----            -------------
00002.M2TS      0:00:00.000     1:37:09.000     14 994 137 088  20 579
CHAPTERS:
Number          Time In         Length          Avg Video Rate  Max 1-Sec Rate  Max 1-Sec Time  Max 5-Sec Rate  Max 5-Sec Time  Max 10Sec Rate  Max 10Sec Time  Avg Frame Size  Max Frame Size  Max Frame Time
------          -------         ------          --------------  --------------  --------------  --------------  --------------  --------------  --------------  --------------  --------------  --------------
1               0:00:00.000     0:09:29.166     15 780 kbps     52 377 kbps     00:02:07.583    38 316 kbps     00:00:31.000    35 262 kbps     00:00:31.250    82 181 bytes    711 779 bytes   00:01:29.541
2               0:09:29.166     0:15:59.333     13 226 kbps     25 025 kbps     00:10:50.666    22 152 kbps     00:10:48.791    20 923 kbps     00:10:44.541    68 887 bytes    478 907 bytes   00:09:59.791
3               0:25:28.500     0:11:57.125     11 465 kbps     20 438 kbps     00:26:04.666    18 432 kbps     00:26:03.250    16 865 kbps     00:25:58.041    59 714 bytes    343 809 bytes   00:26:07.916
4               0:37:25.625     0:08:36.958     11 320 kbps     52 243 kbps     00:39:14.208    33 589 kbps     00:39:13.458    28 578 kbps     00:38:52.000    58 958 bytes    625 683 bytes   00:38:57.916
5               0:46:02.583     0:15:17.791     12 159 kbps     45 234 kbps     01:00:47.041    25 046 kbps     01:00:17.250    22 233 kbps     01:00:18.375    63 328 bytes    536 275 bytes   01:00:48.041
6               1:01:20.375     0:14:59.208     12 869 kbps     30 812 kbps     01:05:16.416    28 670 kbps     01:05:16.208    28 168 kbps     01:05:15.791    67 026 bytes    317 364 bytes   01:06:23.708
7               1:16:19.583     0:08:10.916     11 601 kbps     38 413 kbps     01:18:49.874    25 996 kbps     01:18:49.833    21 121 kbps     01:18:49.874    60 420 bytes    459 651 bytes   01:18:20.125
8               1:24:30.500     0:12:38.500     11 995 kbps     52 841 kbps     01:33:31.708    39 234 kbps     01:33:30.208    34 359 kbps     01:33:26.666    62 476 bytes    641 958 bytes   01:33:01.291
STREAM DIAGNOSTICS:
File            PID             Type            Codec           Language                Seconds                 Bitrate                 Bytes           Packets
----            ---             ----            -----           --------                --------------          --------------          -------------   -----
00002.M2TS      4113 (0x1011)   0x1B            AVC                                     5828,917                12 570                  9 158 497 242   49 856 220
00002.M2TS      4352 (0x1100)   0x80            LPCM            rus (Russian)           5828,917                6 918                   5 040 914 324   27 979 196
********************
PLAYLIST: 00001.MPLS
********************
Код:
Total   Video
Title                                                           Codec   Length  Movie Size      Disc Size       Bitrate Bitrate Main Audio Track                          Secondary Audio Track
-----                                                           ------  ------- --------------  --------------  ------- ------- ------------------                        ---------------------
00001.MPLS                                                      AVC     0:01:47 90 839 040      15 111 741 981  6,79    6,19    DD AC3 2.0 192Kbps
Код:
DISC INFO:
Disc Title:     Сатисфакция (2010)
Disc Size:      15 111 741 981 bytes
Protection:     AACS
BD-Java:        Yes
BDInfo:         0.5.1
PLAYLIST REPORT:
Name:                   00001.MPLS
Size:                   90 839 040 bytes
Length:                 0:01:47 (h:m:s)
Total Bitrate:          6,79 Mbps
Description:
VIDEO:
Codec                   Bitrate             Description
-----                   -------             -----------
MPEG-4 AVC Video        6186 kbps           1080p / 24 fps / 16:9 / High Profile 4.1
AUDIO:
Codec                           Language        Bitrate         Description
-----                           --------        -------         -----------
Dolby Digital Audio             Russian         192 kbps        2.0 / 48 kHz / 192 kbps
FILES:
Name            Time In         Length          Size            Total Bitrate
----            -------         ------          ----            -------------
00001.M2TS      0:00:00.000     0:01:47.000     90 839 040      6 792
CHAPTERS:
Number          Time In         Length          Avg Video Rate  Max 1-Sec Rate  Max 1-Sec Time  Max 5-Sec Rate  Max 5-Sec Time  Max 10Sec Rate  Max 10Sec Time  Avg Frame Size  Max Frame Size  Max Frame Time
------          -------         ------          --------------  --------------  --------------  --------------  --------------  --------------  --------------  --------------  --------------  --------------
1               0:00:00.000     0:01:47.000     6 186 kbps      19 039 kbps     00:00:00.208    9 944 kbps      00:00:00.000    8 204 kbps      00:00:00.000    32 220 bytes    589 021 bytes   00:00:01.875
STREAM DIAGNOSTICS:
File            PID             Type            Codec           Language                Seconds                 Bitrate                 Bytes           Packets
----            ---             ----            -----           --------                --------------          --------------          -------------   -----
00001.M2TS      4113 (0x1011)   0x1B            AVC                                     106,875                 6 193                   82 739 975      451 619
00001.M2TS      4352 (0x1100)   0x81            AC3             rus (Russian)           106,875                 192                     2 568 192       16 720
********************
PLAYLIST: 01001.MPLS
********************
Код:
Total   Video
Title                                                           Codec   Length  Movie Size      Disc Size       Bitrate Bitrate Main Audio Track                          Secondary Audio Track
-----                                                           ------  ------- --------------  --------------  ------- ------- ------------------                        ---------------------
01001.MPLS                                                      AVC     0:01:47 90 839 040      15 111 741 981  6,79    6,19    DD AC3 2.0 192Kbps
Код:
DISC INFO:
Disc Title:     Сатисфакция (2010)
Disc Size:      15 111 741 981 bytes
Protection:     AACS
BD-Java:        Yes
BDInfo:         0.5.1
PLAYLIST REPORT:
Name:                   01001.MPLS
Size:                   90 839 040 bytes
Length:                 0:01:47 (h:m:s)
Total Bitrate:          6,79 Mbps
Description:
VIDEO:
Codec                   Bitrate             Description
-----                   -------             -----------
MPEG-4 AVC Video        6186 kbps           1080p / 24 fps / 16:9 / High Profile 4.1
AUDIO:
Codec                           Language        Bitrate         Description
-----                           --------        -------         -----------
Dolby Digital Audio             Russian         192 kbps        2.0 / 48 kHz / 192 kbps
FILES:
Name            Time In         Length          Size            Total Bitrate
----            -------         ------          ----            -------------
00001.M2TS      0:00:00.000     0:01:47.000     90 839 040      6 792
CHAPTERS:
Number          Time In         Length          Avg Video Rate  Max 1-Sec Rate  Max 1-Sec Time  Max 5-Sec Rate  Max 5-Sec Time  Max 10Sec Rate  Max 10Sec Time  Avg Frame Size  Max Frame Size  Max Frame Time
------          -------         ------          --------------  --------------  --------------  --------------  --------------  --------------  --------------  --------------  --------------  --------------
1               0:00:00.000     0:00:01.333     17 090 kbps     19 039 kbps     00:00:00.208    0 kbps          00:00:00.000    0 kbps          00:00:00.000    86 313 bytes    589 019 bytes   00:00:01.250
2               0:00:01.333     0:01:45.666     6 049 kbps      9 159 kbps      00:00:01.500    7 050 kbps      00:00:01.374    7 094 kbps      00:00:01.833    31 515 bytes    589 021 bytes   00:00:01.875
STREAM DIAGNOSTICS:
File            PID             Type            Codec           Language                Seconds                 Bitrate                 Bytes           Packets
----            ---             ----            -----           --------                --------------          --------------          -------------   -----
00001.M2TS      4113 (0x1011)   0x1B            AVC                                     106,875                 6 193                   82 739 975      451 619
00001.M2TS      4352 (0x1100)   0x81            AC3             rus (Russian)           106,875                 192                     2 568 192       16 720

Скриншоты

Other forum [Profile] [PM]
Display posts from previous:    
Reply to topic

The time now is: Today 03:38

All times are GMT + 3 Hours



You cannot post new topics in this forum
You cannot reply to topics in this forum
You cannot edit your posts in this forum
You cannot delete your posts in this forum
You cannot vote in polls in this forum
You cannot attach files in this forum
You cannot download files in this forum