Today is a free download without charge Download

Отец невесты 2 / Father of the Bride Part II [ Чарльз Шайер (1995) мелодрама, комедия, семейный, BDRip 1080p ]

Reply to topic
 
Author
Message

Delia ®

Gender:

Longevity: 11 years

Posts: 1821

Торрент-статистика

Post 04-Jun-2012 09:55

[Quote]

Отец невесты 2 / Father of the Bride Part II«Just When His World Is Back To Normal... He's In For The Surprise Of His Life!»--
Год выпуска: 1995
Страна: США
Жанр: мелодрама, комедия, семейный, ...
Продолжительность: 01:46:05
Перевод: Профессиональный (многоголосый закадровый)
Субтитры: English (srt)
Режиссер: Чарльз Шайер
Сценарий: Альберт Хэкетт, Фрэнсис Гудрич, Нэнси Мейерс, ...
Продюсер: Кэрол Баум, Брюс А. Блок, Джули Б. Крэйн, ...
Оператор: Эллиот Дэвис, Уильям А. Фрейкер
Композитор: Мэк Гордон, Алан Сильвестри, Гарри Уоррен
Художник: Линда Дессенна, Грег Папалиа, Энид Харрис, ...
Монтаж: Адам Бернарди, Стивен А. Роттер- В ролях: Стив Мартин (Steve Martin), Дайан Китон (Diane Keaton), Мартин Шорт (Martin Short), Кимберли Уильямс-Пэйсли (Kimberly Williams-Paisley), Джордж Ньюберн (George Newbern), Киран Калкин (Kieran Culkin), Б.Д. Вонг (B.D. Wong), Питер Майкл Гец (Peter Michael Goetz), Кейт Макгрегор-Стюарт (Kate McGregor-Stewart), Джейн Адамс (Jane Adams), Юджин Леви (Eugene Levy), Ребекка Чэмберс (Rebecca Chambers), Эйприл Ортиз (April Ortiz), Дульчи Роджерс (Dulcy Rogers), Кэти Энтони (Kathy Anthony), Adrian Canzoneri, Лори Алан (Lori Alan), Стефани Миллер (Stephanie Miller), Холли Мейерс-Шайер (Hallie Meyers-Shyer), Джей Уолперт (Jay Wolpert)
Описание: Он еще слишком молод, чтобы стать дедушкой, но уже достаточно стар, чтобы заводить второго ребенка. И именно в тот момент, когда муж и отец скорбит об ушедшей молодости, его жена и дочь, как будто сговорившись, вдруг объявляют, что они беременны!В довершении всего, к ним приезжает экстравагантный устроитель торжеств, который переворачивает их дом вверх дном&3; и это в то время, когда семья в тишине и покое ждет пополнения.-Рейтинг MPAA: -- --Качество: BDRip
Формат: MKV
Видео кодек: H.264 (AVC)
Аудио кодеk: AC3
Видео: 1920x1040 (16:9), 23.976 fps, AVC, 10.3 Mbps
Аудио: AC3, 448 Kbps, 48.0 KHz, 6 ch |Многоголосый закадровый, Видеосервис|
Отдельно на народ.ру
Russian: 48 kHz, AC3, 2/0 (L,R) ch, ~192.00 kbps avg |Многоголосый закадровый, НТВ+|
Russian: 48 kHz, AC3, 2/0 (L,R) ch, ~192.00 kbps avg |Многоголосый закадровый, 1 канал|
Russian: 48 kHz, AC3, 2/0 (L,R) ch, ~192.00 kbps avg |Одноголосый закадровый, П.Санаев|
Russian: 48 kHz, AC3, 2/0 (L,R) ch, ~192.00 kbps avg |Одноголосый закадровый, Неизвестный|
English:AC3, 448 Kbps, 48.0 KHz, 6 ch

МедиаИнфо

Код:
General
Complete name                    : Otec.nevesty.2.1995.BDRip.mkv
Format                           : Matroska
File size                        : 7.95 GiB
Duration                         : 1h 46mn
Overall bit rate                 : 10.7 Mbps
Encoded date                     : UTC 2012-06-03 22:45:18
Writing application              : mkvmerge v5.4.0 ('Piper') built on Mar 10 2012 13:34:39
Writing library                  : libebml v1.2.3 + libmatroska v1.3.0
Video
ID                               : 1
Format                           : AVC
Format/Info                      : Advanced Video Codec
Format profile                   : [email protected]
Format settings, CABAC           : Yes
Format settings, ReFrames        : 4 frames
Muxing mode                      : Container [email protected]
Codec ID                         : V_MPEG4/ISO/AVC
Duration                         : 1h 46mn
Bit rate                         : 10.3 Mbps
Width                            : 1 920 pixels
Height                           : 1 040 pixels
Display aspect ratio             : 16:9
Frame rate                       : 23.976 fps
Color space                      : YUV
Chroma subsampling               : 4:2:0
Bit depth                        : 8 bits
Scan type                        : Progressive
Bits/(Pixel*Frame)               : 0.215
Stream size                      : 7.46 GiB (94%)
Writing library                  : x264 core 122 r2184 5c85e0a
Encoding settings                : cabac=1 / ref=4 / deblock=1:-2:-2 / analyse=0x3:0x113 / me=umh / subme=10 / psy=1 / psy_rd=1.00:0.25 / mixed_ref=1 / me_range=32 / chroma_me=1 / trellis=2 / 8x8dct=1 / cqm=0 / deadzone=21,11 / fast_pskip=0 / chroma_qp_offset=-2 / threads=6 / sliced_threads=0 / nr=0 / decimate=0 / interlaced=0 / bluray_compat=0 / constrained_intra=0 / bframes=7 / b_pyramid=2 / b_adapt=2 / b_bias=0 / direct=3 / weightb=1 / open_gop=0 / weightp=2 / keyint=240 / keyint_min=23 / scenecut=40 / intra_refresh=0 / rc=2pass / mbtree=0 / bitrate=10282 / ratetol=1.0 / qcomp=0.80 / qpmin=0 / qpmax=69 / qpstep=4 / cplxblur=20.0 / qblur=0.5 / ip_ratio=1.40 / pb_ratio=1.20 / aq=1:0.90
Color primaries                  : BT.709-5, BT.1361, IEC 61966-2-4, SMPTE RP177
Transfer characteristics         : BT.709-5, BT.1361
Matrix coefficients              : BT.709-5, BT.1361, IEC 61966-2-4 709, SMPTE RP177
Audio
ID                               : 2
Format                           : AC-3
Format/Info                      : Audio Coding 3
Mode extension                   : CM (complete main)
Codec ID                         : A_AC3
Duration                         : 1h 46mn
Bit rate mode                    : Constant
Bit rate                         : 448 Kbps
Channel(s)                       : 6 channels
Channel positions                : Front: L C R, Side: L R, LFE
Sampling rate                    : 48.0 KHz
Bit depth                        : 16 bits
Stream size                      : 340 MiB (4%)
Language                         : Russian
Text
ID                               : 3
Format                           : UTF-8
Codec ID                         : S_TEXT/UTF8
Codec ID/Info                    : UTF-8 Plain Text
Menu
00:00:00.000                     : en:Chapter 01
00:05:26.284                     : en:Chapter 02
00:13:09.163                     : en:Chapter 03
00:22:52.371                     : en:Chapter 04
00:32:40.750                     : en:Chapter 05
00:37:12.103                     : en:Chapter 06
00:43:59.303                     : en:Chapter 07
00:48:55.641                     : en:Chapter 08
00:50:13.802                     : en:Chapter 09
00:55:44.591                     : en:Chapter 10
00:57:27.360                     : en:Chapter 11
01:03:41.734                     : en:Chapter 12
01:09:51.729                     : en:Chapter 13
01:13:31.407                     : en:Chapter 14
01:17:37.402                     : en:Chapter 15
01:19:35.520                     : en:Chapter 16
01:27:56.479                     : en:Chapter 17
01:32:45.560                     : en:Chapter 18
01:36:20.316                     : en:Chapter 19
01:41:24.828                     : en:Chapter 20
01:46:04.900                     : en:Chapter 21


Скриншоты

   
   

_________________
Человек – это канат, натянутый между животным и сверхчеловеком, – канат над пропастью.
В человеке ценно то, что он мост, а не цель. Фридрих Ницше
Other forum [Profile] [PM]
Display posts from previous:    
Reply to topic

The time now is: Today 01:36

All times are GMT + 3 Hours



You cannot post new topics in this forum
You cannot reply to topics in this forum
You cannot edit your posts in this forum
You cannot delete your posts in this forum
You cannot vote in polls in this forum
You cannot attach files in this forum
You cannot download files in this forum