Today is a free download without charge Download

приключения лисёнка / Lighting action (Йе Шиюнь / Ye Shiun) [2013, Приключения, SATRip] MVO

Reply to topic
 
Author
Message

Omen ®

Longevity: 7 years 11 months

Posts: 181087

Торрент-статистика

Post 09-Sep-2015 00:03

[Quote]

приключения лисёнка / Lighting action
Страна: Китай
Жанр: Приключения
Продолжительность: 01:14:24
Год выпуска: 2013
Перевод: Профессиональный (многоголосый закадровый)
Русские субтитры: нет
Режиссёр: Йе Шиюнь / Ye Shiun
Описание: Агент № 17 получает секретное задание. Ему нужно проникнуть в город Морковия, выкрасть защитный амулет и уничтожить всех жителей. Все идет по плану до тех пор, пока Лисенок не начинает понимать, что совершает ошибку.
Доп. информация: Присутствует Сурдоперевод
Семпл: https://www.sendspace.com/file/istnjh
Качество: SATRip
Формат: AVI
Видео: XVID; 1049 Кбит/сек; 720х400 (16:9); 25,000 кадров/сек
Аудио: AC-3; 192 Кбит/сек; 2 канала; 48,0 КГц
Субтитры: Отсутствуют

Подробные технические данные

ОбщееПолное имя : E:\закачки\Приключения лисёнка [/*spam*/].aviФормат : AVIФормат/Информация : Audio Video InterleaveРазмер файла : 744 МбайтПродолжительность : 1 ч. 23 м.Общий поток : 1250 Кбит/секПрограмма кодирования : VirtualDubMod 1.5.10.2 (build 2540/release)Библиотека кодирования : VirtualDubMod build 2540/release
ВидеоИдентификатор : 0Формат : MPEG-4 VisualПрофиль формата : Advanced [email protected]Параметр BVOP формата : 2Параметр QPel формата : НетПараметр GMC формата : Без точки переходаПараметр матрицы формата : Default (H.263)Идентификатор кодека : XVIDИдентификатор кодека/Подсказка : XviDПродолжительность : 1 ч. 23 м.Битрейт : 1049 Кбит/секШирина : 720 пикселейВысота : 400 пикселейСоотношение сторон : 16:9Частота кадров : 25,000 кадров/секЦветовое пространство : YUVСубдискретизация насыщенности : 4:2:0Битовая глубина : 8 битТип развёртки : ПрогрессивнаяМетод сжатия : С потерямиБит/(Пиксели*Кадры) : 0.146Размер потока : 624 Мбайт (84%)Библиотека кодирования : XviD 1.2.1 (UTC 2008-12-04)
АудиоИдентификатор : 1Формат : AC-3Формат/Информация : Audio Coding 3Расширение режима : CM (complete main)Параметр Endianness формата : BigИдентификатор кодека : 2000Продолжительность : 1 ч. 23 м.Вид битрейта : ПостоянныйБитрейт : 192 Кбит/секКаналы : 2 каналаРасположение каналов : Front: L RЧастота : 48,0 КГцБитовая глубина : 16 битМетод сжатия : С потерямиРазмер потока : 114 Мбайт (15%)Выравнивание : Соединение по промежуткамПродолжительность промежутка : 40 мс. (1,00 видеокадр)Время предзагрузки промежутка : 512 мс.

Скриншоты

Other forum [Profile] [PM]
Similar theme
Forum Topic Author Torrent Replies Last Post
./templates/default/images/folder_dl.gif Фильмы 2001-2010 Невероятная жизнь Уолтера Митти / The Secret Life of Walter Mitty (Бен Стиллер / Ben Stiller, 2013, Приключения, мелодрама, драма, комедия, фэнтези) WEB-DL [H.264/1080p-LQ] Omen
1 | 0

0 | 918

36

2014-03-26 22:37
Omen Latest
./templates/default/images/folder_dl.gif Историческая литература Андрей Болотов | Жизнь и приключения Андрея Болотова, описанныя самим им для своих потомков. Том 1-3 (2013) [PDF] Omen
1 | 0

0 | 2281

6

2015-01-01 15:06
Omen Latest
./templates/default/images/folder_dl.gif Обучающее видео Учебный центр 1C | Использование прикладного решения 1С Розница 8.2 Редакция 2 (2015) PCRec Varius
1 | 0

0 | 2521

44

2015-07-16 05:16
Varius Latest
./templates/default/images/folder_dl.gif Фильмы в формате 3D Тарзан. Легенда в 3Д / The Legend of Tarzan 3D (Дэвид Йэтс / David Yates) [2016, США, Великобритания, Канада, Приключения, Боевик, Драма, Мелодрама, BDRip] Half SideBySide / Горизонтальная анаморфная стереопара Omen
0 | 1

0 | 1027

0

2016-12-08 01:00
Omen Latest
./templates/default/images/folder_dl.gif Зарубежное кино Изгой-один: Звёздные войны. Истории / Rogue One: A Star Wars Story (Гарет Эдвардс) [2016 г., фантастика, боевик, приключения, BDRip 1080p] DUB | Чистый звук Theseus
1 | 0

0 | 7773

8

2017-03-22 11:05
Theseus Latest
./templates/default/images/folder_dl.gif Зарубежное кино (HD Video) Джим Пуговка и машинист Лукас / Jim Knopf und Lukas der Lokomotivführer (Деннис Ганзель) [2018 г., фэнтези, приключения, семейный, WEB-DL 720p] DUB | Чистый звук Theseus
1 | 0

0 | 1410

5

2018-09-27 19:29
Theseus Latest
./templates/default/images/folder_dl.gif Зарубежные сериалы Игра престолов / Game of Thrones / Сезон: 8 / Серии: 1-6 из 6 (Алан Тейлор / Alan Taylor) [2019, фэнтези, боевик, драма, мелодрама, приключения, WEB-DL 1080p] MVO (Amedia / Новамедиа) + Original + Sub (Rus, Eng) ¶ }{@R0N
1 | 0

0 | 1859

0

2019-05-20 12:02
}{@R0N Latest
./templates/default/images/folder_dl.gif Фильмы 2011-2020 К звёздам / Ad Astra (Джеймс Грэй) [2019, фантастика, триллер, драма, детектив, приключения, HDRip-AVC] [DUB] [iTunes] Орлов Владимир
1 | 0

0 | 497

2

2019-12-07 08:01
Орлов Владимир Latest
./templates/default/images/folder_dl.gif Фильмы 2011-2020 Doom: Аннигиляция / Doom: Annihilation (Тони Гиглио) [2019, ужасы, фантастика, боевик, триллер, приключения, BDRip] L mayor
1 | 0

0 | 505

1

2019-12-09 19:04
mayor Latest
./templates/default/images/folder_dl.gif Фильмы 2011-2020 Фиксики против кработов (Василий Бедошвили, Олег Ужинов, Иван Пшонкин) [2019 г., приключения, музыка, мультфильм, WEB-DLRip] kilmister777
1 | 0

0 | 667

3

2020-02-05 13:57
kilmister777 Latest
Display posts from previous:    
Reply to topic

The time now is: Today 13:33

All times are GMT + 3 Hours



You cannot post new topics in this forum
You cannot reply to topics in this forum
You cannot edit your posts in this forum
You cannot delete your posts in this forum
You cannot vote in polls in this forum
You cannot attach files in this forum
You cannot download files in this forum