Today is a free download without charge Download

приключения лисёнка / Lighting action (Йе Шиюнь / Ye Shiun) [2013, Приключения, SATRip] MVO

Reply to topic
 
Author
Message

Omen ®

Longevity: 8 years 11 months

Posts: 181086

Торрент-статистика

Post 09-Sep-2015 00:03

[Quote]

приключения лисёнка / Lighting action
Страна: Китай
Жанр: Приключения
Продолжительность: 01:14:24
Год выпуска: 2013
Перевод: Профессиональный (многоголосый закадровый)
Русские субтитры: нет
Режиссёр: Йе Шиюнь / Ye Shiun
Описание: Агент № 17 получает секретное задание. Ему нужно проникнуть в город Морковия, выкрасть защитный амулет и уничтожить всех жителей. Все идет по плану до тех пор, пока Лисенок не начинает понимать, что совершает ошибку.
Доп. информация: Присутствует Сурдоперевод
Семпл: https://www.sendspace.com/file/istnjh
Качество: SATRip
Формат: AVI
Видео: XVID; 1049 Кбит/сек; 720х400 (16:9); 25,000 кадров/сек
Аудио: AC-3; 192 Кбит/сек; 2 канала; 48,0 КГц
Субтитры: Отсутствуют

Подробные технические данные

ОбщееПолное имя : E:\закачки\Приключения лисёнка [/*spam*/].aviФормат : AVIФормат/Информация : Audio Video InterleaveРазмер файла : 744 МбайтПродолжительность : 1 ч. 23 м.Общий поток : 1250 Кбит/секПрограмма кодирования : VirtualDubMod 1.5.10.2 (build 2540/release)Библиотека кодирования : VirtualDubMod build 2540/release
ВидеоИдентификатор : 0Формат : MPEG-4 VisualПрофиль формата : Advanced [email protected]Параметр BVOP формата : 2Параметр QPel формата : НетПараметр GMC формата : Без точки переходаПараметр матрицы формата : Default (H.263)Идентификатор кодека : XVIDИдентификатор кодека/Подсказка : XviDПродолжительность : 1 ч. 23 м.Битрейт : 1049 Кбит/секШирина : 720 пикселейВысота : 400 пикселейСоотношение сторон : 16:9Частота кадров : 25,000 кадров/секЦветовое пространство : YUVСубдискретизация насыщенности : 4:2:0Битовая глубина : 8 битТип развёртки : ПрогрессивнаяМетод сжатия : С потерямиБит/(Пиксели*Кадры) : 0.146Размер потока : 624 Мбайт (84%)Библиотека кодирования : XviD 1.2.1 (UTC 2008-12-04)
АудиоИдентификатор : 1Формат : AC-3Формат/Информация : Audio Coding 3Расширение режима : CM (complete main)Параметр Endianness формата : BigИдентификатор кодека : 2000Продолжительность : 1 ч. 23 м.Вид битрейта : ПостоянныйБитрейт : 192 Кбит/секКаналы : 2 каналаРасположение каналов : Front: L RЧастота : 48,0 КГцБитовая глубина : 16 битМетод сжатия : С потерямиРазмер потока : 114 Мбайт (15%)Выравнивание : Соединение по промежуткамПродолжительность промежутка : 40 мс. (1,00 видеокадр)Время предзагрузки промежутка : 512 мс.

Скриншоты

Other forum [Profile] [PM]
Similar theme
Forum Topic Author Torrent Replies Last Post
./templates/default/images/folder_dl.gif Фильмы 2001-2010 Римские приключения / To Rome with Love (Вуди Аллен)[2012, Мелодрама, комедия] BDRip 720p| Лицензия| DeadMmau5
1 | 0

0 | 608

9

2012-12-05 19:42
DeadMmau5 Latest
./templates/default/images/folder_dl.gif Обучающее видео Учебный центр 1C | Использование прикладного решения 1С Розница 8.2 Редакция 2 (2015) PCRec Varius
1 | 0

0 | 2514

44

2015-07-16 05:16
Varius Latest
./templates/default/images/folder_dl.gif Зарубежное кино (HD Video) Доктор Стрэндж / Doctor Strange (Скотт Дерриксон) [2016, Фантастика, Фэнтези, Боевик, Приключения, BDRip 720p] Dub (iTunes) Omen
1 | 0

0 | 807

3

2016-03-09 18:02
Omen Latest
./templates/default/images/folder_dl.gif Зарубежное кино (HD Video) Меч короля Артура / King Arthur: Legend of the Sword (Гай Ричи) [2017, фэнтези, боевик, драма, приключения, BDRip 1080p] DUB | Лицензия Theseus
1 | 0

0 | 7144

3

2017-08-16 20:14
Theseus Latest
./templates/default/images/folder_dl.gif Фильмы 2011-2020 Алита: Боевой ангел / Alita: Battle Angel (Роберт Родригес) [2019 г., фантастика, боевик, триллер, мелодрама, приключения, WEB-DLRip]MVO | CВ Студия kilmister777
1 | 0

0 | 816

0

2019-06-30 17:02
kilmister777 Latest
Display posts from previous:    
Reply to topic

The time now is: Today 21:52

All times are GMT + 3 Hours



You cannot post new topics in this forum
You cannot reply to topics in this forum
You cannot edit your posts in this forum
You cannot delete your posts in this forum
You cannot vote in polls in this forum
You cannot attach files in this forum
You cannot download files in this forum